<?xml version="1.0" standalone="no"?>
<!DOCTYPE svg PUBLIC "-//W3C//DTD SVG 1.1//EN" "http://www.w3.org/Graphics/SVG/1.1/DTD/svg11.dtd" >
<svg xmlns="http://www.w3.org/2000/svg" xmlns:xlink="http://www.w3.org/1999/xlink" version="1.1">
<metadata>
Created by FontForge 20230101 at Thu Apr 30 07:00:17 2020
 By Unknown
Copyright \(c\) 2020 CoType Foundry. All Rights Reserved.
</metadata>
<defs>
<font id="AeonikPro-Black" horiz-adv-x="510" >
  <font-face 
    font-family="Aeonik Pro Black"
    font-weight="900"
    font-stretch="normal"
    units-per-em="1000"
    panose-1="2 11 10 3 3 3 0 0 0 0"
    ascent="750"
    descent="-250"
    x-height="516"
    cap-height="700"
    bbox="-425 -206 2190 927"
    underline-thickness="100"
    underline-position="-200"
    stemh="140"
    stemv="186"
    unicode-range="U+000D-1F10C"
  />
<missing-glyph horiz-adv-x="620" 
d="M60 -109v829h500v-829h-500zM217 632c-55 0 -85 -35 -85 -90s30 -90 85 -90c44 0 71 28 74 67h-46c-4 -17 -12 -29 -30 -29c-25 0 -35 21 -35 52c0 30 10 52 35 52c18 0 26 -13 30 -30h46c-3 40 -30 68 -74 68zM394 632c-54 0 -87 -39 -87 -90c0 -52 33 -90 87 -90
c53 0 87 38 87 90c0 51 -34 90 -87 90zM394 490c-26 0 -39 22 -39 52s13 52 39 52s39 -22 39 -52s-13 -52 -39 -52zM288 400h-146v-40h49v-138h47v138h50v40zM417 222v66l64 112h-52l-35 -65l-33 65h-55l64 -112v-66h47zM203 46h28c40 0 67 24 67 61c0 38 -27 62 -67 62h-74
v-178h46v55zM338 -9h125v40h-78v31h60v37h-60v30h75v40h-122v-178zM203 131h24c14 0 24 -9 24 -24c0 -14 -10 -23 -24 -23h-24v47z" />
    <glyph glyph-name="f_f.liga" unicode="ff" horiz-adv-x="713" 
d="M708 556h-86c-22 0 -35 -11 -35 -34v-6h121v-143h-121v-373h-173v373h-160v-373h-173v373h-81v143h81v38c0 89 59 146 167 146h107v-144h-66c-22 0 -35 -11 -35 -34v-6h160v38c0 89 59 146 167 146h127v-144z" />
    <glyph glyph-name="f_f_i.liga" unicode="ffi" horiz-adv-x="970" 
d="M838 554c-55 0 -97 40 -97 94s42 94 97 94s97 -40 97 -94s-42 -94 -97 -94zM591 516h334v-516h-174v373h-160v-373h-173v373h-164v-373h-173v373h-81v143h81v38c0 89 59 146 167 146h107v-144h-66c-22 0 -35 -11 -35 -34v-6h164v38c0 89 59 146 167 146h107v-144h-66
c-22 0 -35 -11 -35 -34v-6z" />
    <glyph glyph-name="f_f_t.liga" unicode="fft" horiz-adv-x="1047" 
d="M1030 516v-143h-111v-183c0 -33 14 -47 47 -47h64v-143h-129c-98 0 -155 52 -155 155v218h-155v-373h-173v373h-164v-373h-173v373h-81v143h81v38c0 89 59 146 167 146h107v-144h-66c-22 0 -35 -11 -35 -34v-6h164v38c0 89 59 146 167 146h97v-144h-56
c-22 0 -35 -11 -35 -34v-6h155v145h173v-145h111z" />
    <glyph glyph-name="f_t.liga" unicode="ft" horiz-adv-x="710" 
d="M693 516v-143h-111v-183c0 -33 14 -47 47 -47h64v-143h-129c-98 0 -155 52 -155 155v218h-155v-373h-173v373h-81v143h81v38c0 89 59 146 167 146h97v-144h-56c-22 0 -35 -11 -35 -34v-6h155v145h173v-145h111z" />
    <glyph glyph-name="fi" unicode="fi" horiz-adv-x="633" 
d="M501 554c-55 0 -97 40 -97 94s42 94 97 94s97 -40 97 -94s-42 -94 -97 -94zM254 516h334v-516h-174v373h-160v-373h-173v373h-81v143h81v38c0 89 59 146 167 146h107v-144h-66c-22 0 -35 -11 -35 -34v-6z" />
    <glyph glyph-name="t_t.liga" unicode="tt" horiz-adv-x="720" 
d="M703 516v-143h-111v-183c0 -33 14 -47 47 -47h64v-143h-129c-98 0 -155 52 -155 155v218h-165v-183c0 -33 14 -47 47 -47h54v-143h-119c-98 0 -155 52 -155 155v218h-81v143h81v145h173v-145h165v145h173v-145h111z" />
    <glyph glyph-name=".notdef" horiz-adv-x="620" 
d="M60 -109v829h500v-829h-500zM217 632c-55 0 -85 -35 -85 -90s30 -90 85 -90c44 0 71 28 74 67h-46c-4 -17 -12 -29 -30 -29c-25 0 -35 21 -35 52c0 30 10 52 35 52c18 0 26 -13 30 -30h46c-3 40 -30 68 -74 68zM394 632c-54 0 -87 -39 -87 -90c0 -52 33 -90 87 -90
c53 0 87 38 87 90c0 51 -34 90 -87 90zM394 490c-26 0 -39 22 -39 52s13 52 39 52s39 -22 39 -52s-13 -52 -39 -52zM288 400h-146v-40h49v-138h47v138h50v40zM417 222v66l64 112h-52l-35 -65l-33 65h-55l64 -112v-66h47zM203 46h28c40 0 67 24 67 61c0 38 -27 62 -67 62h-74
v-178h46v55zM338 -9h125v40h-78v31h60v37h-60v30h75v40h-122v-178zM203 131h24c14 0 24 -9 24 -24c0 -14 -10 -23 -24 -23h-24v47z" />
    <glyph glyph-name=".null" horiz-adv-x="600" 
 />
    <glyph glyph-name="CR" unicode="&#xd;" horiz-adv-x="600" 
 />
    <glyph glyph-name="space" unicode=" " horiz-adv-x="240" 
 />
    <glyph glyph-name="A" unicode="A" horiz-adv-x="720" 
d="M191 0h-191l250 700h222l248 -700h-198l-44 133h-244zM355 505l-74 -227h149z" />
    <glyph glyph-name="Aacute" unicode="&#xc1;" horiz-adv-x="720" 
d="M427 751h-125l68 145h196zM191 0h-191l250 700h222l248 -700h-198l-44 133h-244zM355 505l-74 -227h149z" />
    <glyph glyph-name="Abreve" unicode="&#x102;" horiz-adv-x="720" 
d="M197 896h119c0 -28 18 -46 46 -46c27 0 45 18 45 46h120c-5 -90 -71 -152 -168 -152c-95 0 -158 62 -162 152zM191 0h-191l250 700h222l248 -700h-198l-44 133h-244zM355 505l-74 -227h149z" />
    <glyph glyph-name="Acircumflex" unicode="&#xc2;" horiz-adv-x="720" 
d="M410 751l-48 46l-48 -46h-157l129 145h152l129 -145h-157zM191 0h-191l250 700h222l248 -700h-198l-44 133h-244zM355 505l-74 -227h149z" />
    <glyph glyph-name="Adieresis" unicode="&#xc4;" horiz-adv-x="720" 
d="M163 837c0 49 39 85 88 85c50 0 88 -36 88 -85c0 -48 -38 -84 -88 -84c-49 0 -88 36 -88 84zM386 837c0 49 38 85 87 85c50 0 88 -36 88 -85c0 -48 -38 -84 -88 -84c-49 0 -87 36 -87 84zM191 0h-191l250 700h222l248 -700h-198l-44 133h-244zM355 505l-74 -227h149z" />
    <glyph glyph-name="Agrave" unicode="&#xc0;" horiz-adv-x="720" 
d="M294 748l-131 148h196l63 -148h-128zM191 0h-191l250 700h222l248 -700h-198l-44 133h-244zM355 505l-74 -227h149z" />
    <glyph glyph-name="Amacron" unicode="&#x100;" horiz-adv-x="720" 
d="M527 776h-330v120h330v-120zM191 0h-191l250 700h222l248 -700h-198l-44 133h-244zM355 505l-74 -227h149z" />
    <glyph glyph-name="Aogonek" unicode="&#x104;" horiz-adv-x="720" 
d="M630 -68c0 -13 9 -19 26 -19h64v-113h-96c-72 0 -129 39 -129 104c0 41 19 71 47 96h-20l-44 133h-244l-43 -133h-191l250 700h222l248 -700c-61 -24 -90 -45 -90 -68zM355 505l-74 -227h149z" />
    <glyph glyph-name="Aring" unicode="&#xc5;" horiz-adv-x="720" 
d="M473 698l247 -698h-198l-44 133h-244l-43 -133h-191l248 695c-17 21 -27 47 -27 76c0 70 61 126 138 126s138 -56 138 -126c0 -27 -9 -52 -24 -73zM359 826c-31 0 -56 -24 -56 -55c0 -32 25 -56 56 -56s56 24 56 56c0 31 -25 55 -56 55zM355 505l-74 -227h149z" />
    <glyph glyph-name="Atilde" unicode="&#xc3;" horiz-adv-x="720" 
d="M328 794c-19 0 -32 -15 -32 -34h-99v25c0 66 43 115 101 115c53 0 62 -38 99 -38c18 0 32 15 32 34h98v-25c0 -66 -43 -115 -100 -115c-54 0 -68 38 -99 38zM191 0h-191l250 700h222l248 -700h-198l-44 133h-244zM355 505l-74 -227h149z" />
    <glyph glyph-name="AE" unicode="&#xc6;" horiz-adv-x="1016" 
d="M676 278v-122h310v-156h-494v132h-235l-77 -132h-190l403 700h582v-156h-299v-120h239v-146h-239zM492 543l-151 -266h151v266z" />
    <glyph glyph-name="AEacute" unicode="&#x1fc;" horiz-adv-x="1016" 
d="M594 896h196l-139 -145h-125zM676 278v-122h310v-156h-494v132h-235l-77 -132h-190l403 700h582v-156h-299v-120h239v-146h-239zM492 543l-151 -266h151v266z" />
    <glyph glyph-name="B" unicode="B" horiz-adv-x="648" 
d="M55 0v700h277c168 0 268 -66 268 -185c0 -92 -56 -143 -144 -156c103 -11 167 -61 167 -160c0 -122 -100 -199 -276 -199h-292zM335 561h-96v-140h96c51 0 81 28 81 70s-30 70 -81 70zM349 284h-110v-144h110c53 0 85 27 85 72s-32 72 -85 72z" />
    <glyph glyph-name="C" unicode="C" horiz-adv-x="697" 
d="M364 -6c-211 0 -338 140 -338 356s131 356 348 356c172 0 292 -111 305 -267h-184c-13 67 -59 115 -131 115c-96 0 -150 -84 -150 -204s54 -204 150 -204c72 0 118 48 131 115h184c-13 -156 -137 -267 -315 -267z" />
    <glyph glyph-name="Cacute" unicode="&#x106;" horiz-adv-x="697" 
d="M434 751h-125l68 145h196zM364 -6c-211 0 -338 140 -338 356s131 356 348 356c172 0 292 -111 305 -267h-184c-13 67 -59 115 -131 115c-96 0 -150 -84 -150 -204s54 -204 150 -204c72 0 118 48 131 115h184c-13 -156 -137 -267 -315 -267z" />
    <glyph glyph-name="Ccaron" unicode="&#x10c;" horiz-adv-x="697" 
d="M321 896l48 -46l48 46h157l-129 -145h-152l-129 145h157zM364 -6c-211 0 -338 140 -338 356s131 356 348 356c172 0 292 -111 305 -267h-184c-13 67 -59 115 -131 115c-96 0 -150 -84 -150 -204s54 -204 150 -204c72 0 118 48 131 115h184c-13 -156 -137 -267 -315 -267z
" />
    <glyph glyph-name="Ccedilla" unicode="&#xc7;" horiz-adv-x="697" 
d="M364 146c72 0 118 48 131 115h184c-12 -146 -121 -252 -280 -266l-5 -19h13c62 0 100 -29 100 -78c0 -60 -46 -98 -118 -98h-136v79h100c14 0 23 8 23 22c0 12 -9 19 -23 19h-63l19 77c-178 23 -283 156 -283 353c0 216 131 356 348 356c172 0 292 -111 305 -267h-184
c-13 67 -59 115 -131 115c-96 0 -150 -84 -150 -204s54 -204 150 -204z" />
    <glyph glyph-name="Ccircumflex" unicode="&#x108;" horiz-adv-x="697" 
d="M417 751l-48 46l-48 -46h-157l129 145h152l129 -145h-157zM364 -6c-211 0 -338 140 -338 356s131 356 348 356c172 0 292 -111 305 -267h-184c-13 67 -59 115 -131 115c-96 0 -150 -84 -150 -204s54 -204 150 -204c72 0 118 48 131 115h184c-13 -156 -137 -267 -315 -267
z" />
    <glyph glyph-name="Cdotaccent" unicode="&#x10a;" horiz-adv-x="697" 
d="M369 738c-55 0 -97 40 -97 94s42 94 97 94s97 -40 97 -94s-42 -94 -97 -94zM364 -6c-211 0 -338 140 -338 356s131 356 348 356c172 0 292 -111 305 -267h-184c-13 67 -59 115 -131 115c-96 0 -150 -84 -150 -204s54 -204 150 -204c72 0 118 48 131 115h184
c-13 -156 -137 -267 -315 -267z" />
    <glyph glyph-name="D" unicode="D" horiz-adv-x="722" 
d="M328 0h-273v700h273c217 0 368 -145 368 -348s-151 -352 -368 -352zM239 550v-400h89c114 0 180 85 180 202s-66 198 -180 198h-89z" />
    <glyph glyph-name="Eth" unicode="&#xd0;" horiz-adv-x="747" 
d="M80 700h273c217 0 368 -145 368 -348s-151 -352 -368 -352h-273v294h-75v120h75v286zM264 150h89c114 0 180 85 180 202s-66 198 -180 198h-89v-136h97v-120h-97v-144z" />
    <glyph glyph-name="Dcaron" unicode="&#x10e;" horiz-adv-x="722" 
d="M294 896l48 -46l48 46h157l-129 -145h-152l-129 145h157zM328 0h-273v700h273c217 0 368 -145 368 -348s-151 -352 -368 -352zM239 550v-400h89c114 0 180 85 180 202s-66 198 -180 198h-89z" />
    <glyph glyph-name="Dcroat" unicode="&#x110;" horiz-adv-x="747" 
d="M80 700h273c217 0 368 -145 368 -348s-151 -352 -368 -352h-273v294h-75v120h75v286zM264 150h89c114 0 180 85 180 202s-66 198 -180 198h-89v-136h97v-120h-97v-144z" />
    <glyph glyph-name="E" unicode="E" horiz-adv-x="579" 
d="M55 0v700h483v-156h-299v-120h239v-146h-239v-122h310v-156h-494z" />
    <glyph glyph-name="Eacute" unicode="&#xc9;" horiz-adv-x="579" 
d="M372 751h-125l68 145h196zM55 0v700h483v-156h-299v-120h239v-146h-239v-122h310v-156h-494z" />
    <glyph glyph-name="Ebreve" unicode="&#x114;" horiz-adv-x="579" 
d="M142 896h119c0 -28 18 -46 46 -46c27 0 45 18 45 46h120c-5 -90 -71 -152 -168 -152c-95 0 -158 62 -162 152zM55 0v700h483v-156h-299v-120h239v-146h-239v-122h310v-156h-494z" />
    <glyph glyph-name="Ecaron" unicode="&#x11a;" horiz-adv-x="579" 
d="M259 896l48 -46l48 46h157l-129 -145h-152l-129 145h157zM55 0v700h483v-156h-299v-120h239v-146h-239v-122h310v-156h-494z" />
    <glyph glyph-name="Ecircumflex" unicode="&#xca;" horiz-adv-x="579" 
d="M355 751l-48 46l-48 -46h-157l129 145h152l129 -145h-157zM55 0v700h483v-156h-299v-120h239v-146h-239v-122h310v-156h-494z" />
    <glyph glyph-name="Edieresis" unicode="&#xcb;" horiz-adv-x="579" 
d="M108 837c0 49 39 85 88 85c50 0 88 -36 88 -85c0 -48 -38 -84 -88 -84c-49 0 -88 36 -88 84zM331 837c0 49 38 85 87 85c50 0 88 -36 88 -85c0 -48 -38 -84 -88 -84c-49 0 -87 36 -87 84zM55 0v700h483v-156h-299v-120h239v-146h-239v-122h310v-156h-494z" />
    <glyph glyph-name="Edotaccent" unicode="&#x116;" horiz-adv-x="579" 
d="M307 738c-55 0 -97 40 -97 94s42 94 97 94s97 -40 97 -94s-42 -94 -97 -94zM55 0v700h483v-156h-299v-120h239v-146h-239v-122h310v-156h-494z" />
    <glyph glyph-name="Egrave" unicode="&#xc8;" horiz-adv-x="579" 
d="M239 748l-131 148h196l63 -148h-128zM55 0v700h483v-156h-299v-120h239v-146h-239v-122h310v-156h-494z" />
    <glyph glyph-name="Emacron" unicode="&#x112;" horiz-adv-x="579" 
d="M472 776h-330v120h330v-120zM55 0v700h483v-156h-299v-120h239v-146h-239v-122h310v-156h-494z" />
    <glyph glyph-name="Eogonek" unicode="&#x118;" horiz-adv-x="579" 
d="M549 156v-156c-61 -24 -90 -45 -90 -68c0 -13 9 -19 26 -19h64v-113h-96c-72 0 -129 39 -129 104c0 41 19 71 47 96h-316v700h483v-156h-299v-120h239v-146h-239v-122h310z" />
    <glyph glyph-name="F" unicode="F" horiz-adv-x="552" 
d="M55 0v700h477v-156h-293v-126h239v-146h-239v-272h-184z" />
    <glyph glyph-name="G" unicode="G" horiz-adv-x="750" 
d="M361 -6c-202 0 -335 140 -335 356s133 356 354 356c177 0 298 -111 312 -267h-181c-14 67 -61 115 -136 115c-101 0 -161 -84 -161 -204s56 -204 163 -204c54 0 127 23 149 107v1h-155v140h324v-394h-122l-20 74c-39 -48 -103 -80 -192 -80z" />
    <glyph glyph-name="Gbreve" unicode="&#x11e;" horiz-adv-x="750" 
d="M215 896h119c0 -28 18 -46 46 -46c27 0 45 18 45 46h120c-5 -90 -71 -152 -168 -152c-95 0 -158 62 -162 152zM361 -6c-202 0 -335 140 -335 356s133 356 354 356c177 0 298 -111 312 -267h-181c-14 67 -61 115 -136 115c-101 0 -161 -84 -161 -204s56 -204 163 -204
c54 0 127 23 149 107v1h-155v140h324v-394h-122l-20 74c-39 -48 -103 -80 -192 -80z" />
    <glyph glyph-name="Gcircumflex" unicode="&#x11c;" horiz-adv-x="750" 
d="M428 751l-48 46l-48 -46h-157l129 145h152l129 -145h-157zM361 -6c-202 0 -335 140 -335 356s133 356 354 356c177 0 298 -111 312 -267h-181c-14 67 -61 115 -136 115c-101 0 -161 -84 -161 -204s56 -204 163 -204c54 0 127 23 149 107v1h-155v140h324v-394h-122l-20 74
c-39 -48 -103 -80 -192 -80z" />
    <glyph glyph-name="uni0122" unicode="&#x122;" horiz-adv-x="750" 
d="M361 -6c-202 0 -335 140 -335 356s133 356 354 356c177 0 298 -111 312 -267h-181c-14 67 -61 115 -136 115c-101 0 -161 -84 -161 -204s56 -204 163 -204c54 0 127 23 149 107v1h-155v140h324v-394h-122l-20 74c-39 -48 -103 -80 -192 -80zM219 -195l56 148h167
l-92 -148h-131z" />
    <glyph glyph-name="Gdotaccent" unicode="&#x120;" horiz-adv-x="750" 
d="M380 738c-55 0 -97 40 -97 94s42 94 97 94s97 -40 97 -94s-42 -94 -97 -94zM361 -6c-202 0 -335 140 -335 356s133 356 354 356c177 0 298 -111 312 -267h-181c-14 67 -61 115 -136 115c-101 0 -161 -84 -161 -204s56 -204 163 -204c54 0 127 23 149 107v1h-155v140h324
v-394h-122l-20 74c-39 -48 -103 -80 -192 -80z" />
    <glyph glyph-name="H" unicode="H" horiz-adv-x="711" 
d="M55 0v700h184v-269h233v269h184v-700h-184v275h-233v-275h-184z" />
    <glyph glyph-name="Hbar" unicode="&#x126;" horiz-adv-x="751" 
d="M676 608h75v-120h-75v-488h-184v245h-233v-245h-184v488h-75v120h75v92h184v-92h233v92h184v-92zM259 401h233v87h-233v-87z" />
    <glyph glyph-name="Hcircumflex" unicode="&#x124;" horiz-adv-x="711" 
d="M404 751l-48 46l-48 -46h-157l129 145h152l129 -145h-157zM55 0v700h184v-269h233v269h184v-700h-184v275h-233v-275h-184z" />
    <glyph glyph-name="I" unicode="I" horiz-adv-x="294" 
d="M55 0v700h184v-700h-184z" />
    <glyph glyph-name="IJ" unicode="&#x132;" horiz-adv-x="674" 
d="M50 281h185c0 -82 28 -135 102 -135s102 50 102 131v423h185v-419c0 -184 -101 -287 -287 -287s-289 94 -287 287zM52 344v356h184v-356h-184z" />
    <glyph glyph-name="Iacute" unicode="&#xcd;" horiz-adv-x="294" 
d="M212 751h-125l68 145h196zM55 0v700h184v-700h-184z" />
    <glyph glyph-name="Ibreve" unicode="&#x12c;" horiz-adv-x="294" 
d="M-18 896h119c0 -28 18 -46 46 -46c27 0 45 18 45 46h120c-5 -90 -71 -152 -168 -152c-95 0 -158 62 -162 152zM55 0v700h184v-700h-184z" />
    <glyph glyph-name="Icircumflex" unicode="&#xce;" horiz-adv-x="294" 
d="M195 751l-48 46l-48 -46h-157l129 145h152l129 -145h-157zM55 0v700h184v-700h-184z" />
    <glyph glyph-name="Idieresis" unicode="&#xcf;" horiz-adv-x="294" 
d="M-52 837c0 49 39 85 88 85c50 0 88 -36 88 -85c0 -48 -38 -84 -88 -84c-49 0 -88 36 -88 84zM171 837c0 49 38 85 87 85c50 0 88 -36 88 -85c0 -48 -38 -84 -88 -84c-49 0 -87 36 -87 84zM55 0v700h184v-700h-184z" />
    <glyph glyph-name="Idotaccent" unicode="&#x130;" horiz-adv-x="294" 
d="M147 738c-55 0 -97 40 -97 94s42 94 97 94s97 -40 97 -94s-42 -94 -97 -94zM55 0v700h184v-700h-184z" />
    <glyph glyph-name="Igrave" unicode="&#xcc;" horiz-adv-x="294" 
d="M79 748l-131 148h196l63 -148h-128zM55 0v700h184v-700h-184z" />
    <glyph glyph-name="Imacron" unicode="&#x12a;" horiz-adv-x="294" 
d="M312 776h-330v120h330v-120zM55 0v700h184v-700h-184z" />
    <glyph glyph-name="Iogonek" unicode="&#x12e;" horiz-adv-x="294" 
d="M239 700v-700c-61 -24 -90 -45 -90 -68c0 -13 9 -19 26 -19h64v-113h-96c-72 0 -129 39 -129 104c0 41 19 71 47 96h-6v700h184z" />
    <glyph glyph-name="Itilde" unicode="&#x128;" horiz-adv-x="294" 
d="M113 794c-19 0 -32 -15 -32 -34h-99v25c0 66 43 115 101 115c53 0 62 -38 99 -38c18 0 32 15 32 34h98v-25c0 -66 -43 -115 -100 -115c-54 0 -68 38 -99 38zM55 0v700h184v-700h-184z" />
    <glyph glyph-name="J" unicode="J" horiz-adv-x="422" 
d="M183 238v462h184v-503c0 -123 -75 -197 -198 -197h-149v156h85c56 0 78 27 78 82z" />
    <glyph glyph-name="J.ss07" horiz-adv-x="639" 
d="M15 281h185c0 -82 28 -135 102 -135s102 50 102 131v423h185v-419c0 -184 -101 -287 -287 -287s-289 94 -287 287z" />
    <glyph glyph-name="Jcircumflex" unicode="&#x134;" horiz-adv-x="422" 
d="M323 751l-48 46l-48 -46h-157l129 145h152l129 -145h-157zM183 238v462h184v-503c0 -123 -75 -197 -198 -197h-149v156h85c56 0 78 27 78 82z" />
    <glyph glyph-name="Jcircumflex.ss07" horiz-adv-x="639" 
d="M546 751l-48 46l-48 -46h-157l129 145h152l129 -145h-157zM15 281h185c0 -82 28 -135 102 -135s102 50 102 131v423h185v-419c0 -184 -101 -287 -287 -287s-289 94 -287 287z" />
    <glyph glyph-name="K" unicode="K" horiz-adv-x="707" 
d="M55 0v700h184v-274l241 274h223l-260 -291l276 -409h-222l-183 276l-75 -84v-192h-184z" />
    <glyph glyph-name="uni0136" unicode="&#x136;" horiz-adv-x="707" 
d="M55 0v700h184v-274l241 274h223l-260 -291l276 -409h-222l-183 276l-75 -84v-192h-184zM205 -195l56 148h167l-92 -148h-131z" />
    <glyph glyph-name="L" unicode="L" horiz-adv-x="515" 
d="M495 0h-440v700h184v-544h256v-156z" />
    <glyph glyph-name="Lacute" unicode="&#x139;" horiz-adv-x="515" 
d="M212 751h-125l68 145h196zM495 0h-440v700h184v-544h256v-156z" />
    <glyph glyph-name="Lcaron" unicode="&#x13d;" horiz-adv-x="515" 
d="M495 0h-440v700h184v-544h256v-156zM268 551l33 149h161l-73 -149h-121z" />
    <glyph glyph-name="uni013B" unicode="&#x13b;" horiz-adv-x="515" 
d="M495 0h-440v700h184v-544h256v-156zM129 -195l56 148h167l-92 -148h-131z" />
    <glyph glyph-name="Ldot" unicode="&#x13f;" horiz-adv-x="515" 
d="M495 0h-440v700h184v-544h256v-156zM404 294c-55 0 -97 40 -97 94s42 94 97 94s97 -40 97 -94s-42 -94 -97 -94z" />
    <glyph glyph-name="Lslash" unicode="&#x141;" horiz-adv-x="533" 
d="M257 348v-192h256v-156h-440v251l-68 -36v136l68 36v313h184v-216l132 69v-136z" />
    <glyph glyph-name="M" unicode="M" horiz-adv-x="916" 
d="M55 0v700h244l166 -478l157 478h239v-700h-175v424l-155 -424h-146l-155 424v-424h-175z" />
    <glyph glyph-name="N" unicode="N" horiz-adv-x="713" 
d="M236 0h-181v700h167l255 -387v387h181v-700h-167l-255 387v-387z" />
    <glyph glyph-name="Nacute" unicode="&#x143;" horiz-adv-x="713" 
d="M408 751h-125l68 145h196zM236 0h-181v700h167l255 -387v387h181v-700h-167l-255 387v-387z" />
    <glyph glyph-name="Ncaron" unicode="&#x147;" horiz-adv-x="713" 
d="M295 896l48 -46l48 46h157l-129 -145h-152l-129 145h157zM236 0h-181v700h167l255 -387v387h181v-700h-167l-255 387v-387z" />
    <glyph glyph-name="uni0145" unicode="&#x145;" horiz-adv-x="713" 
d="M236 0h-181v700h167l255 -387v387h181v-700h-167l-255 387v-387zM208 -195l56 148h167l-92 -148h-131z" />
    <glyph glyph-name="Eng" unicode="&#x14a;" horiz-adv-x="713" 
d="M477 313v387h181v-719c0 -111 -61 -181 -167 -181h-96v146h39c31 0 48 17 48 58v10l-246 373v-387h-181v700h167z" />
    <glyph glyph-name="Ntilde" unicode="&#xd1;" horiz-adv-x="713" 
d="M309 794c-19 0 -32 -15 -32 -34h-99v25c0 66 43 115 101 115c53 0 62 -38 99 -38c18 0 32 15 32 34h98v-25c0 -66 -43 -115 -100 -115c-54 0 -68 38 -99 38zM236 0h-181v700h167l255 -387v387h181v-700h-167l-255 387v-387z" />
    <glyph glyph-name="O" unicode="O" horiz-adv-x="760" 
d="M734 350c0 -203 -143 -356 -354 -356s-354 153 -354 356s143 356 354 356s354 -153 354 -356zM214 350c0 -117 64 -204 166 -204s166 87 166 204s-64 204 -166 204s-166 -87 -166 -204z" />
    <glyph glyph-name="Oacute" unicode="&#xd3;" horiz-adv-x="760" 
d="M445 751h-125l68 145h196zM734 350c0 -203 -143 -356 -354 -356s-354 153 -354 356s143 356 354 356s354 -153 354 -356zM214 350c0 -117 64 -204 166 -204s166 87 166 204s-64 204 -166 204s-166 -87 -166 -204z" />
    <glyph glyph-name="Obreve" unicode="&#x14e;" horiz-adv-x="760" 
d="M215 896h119c0 -28 18 -46 46 -46c27 0 45 18 45 46h120c-5 -90 -71 -152 -168 -152c-95 0 -158 62 -162 152zM734 350c0 -203 -143 -356 -354 -356s-354 153 -354 356s143 356 354 356s354 -153 354 -356zM214 350c0 -117 64 -204 166 -204s166 87 166 204
s-64 204 -166 204s-166 -87 -166 -204z" />
    <glyph glyph-name="Ocircumflex" unicode="&#xd4;" horiz-adv-x="760" 
d="M428 751l-48 46l-48 -46h-157l129 145h152l129 -145h-157zM734 350c0 -203 -143 -356 -354 -356s-354 153 -354 356s143 356 354 356s354 -153 354 -356zM214 350c0 -117 64 -204 166 -204s166 87 166 204s-64 204 -166 204s-166 -87 -166 -204z" />
    <glyph glyph-name="Odieresis" unicode="&#xd6;" horiz-adv-x="760" 
d="M181 837c0 49 39 85 88 85c50 0 88 -36 88 -85c0 -48 -38 -84 -88 -84c-49 0 -88 36 -88 84zM404 837c0 49 38 85 87 85c50 0 88 -36 88 -85c0 -48 -38 -84 -88 -84c-49 0 -87 36 -87 84zM734 350c0 -203 -143 -356 -354 -356s-354 153 -354 356s143 356 354 356
s354 -153 354 -356zM214 350c0 -117 64 -204 166 -204s166 87 166 204s-64 204 -166 204s-166 -87 -166 -204z" />
    <glyph glyph-name="Ograve" unicode="&#xd2;" horiz-adv-x="760" 
d="M312 748l-131 148h196l63 -148h-128zM734 350c0 -203 -143 -356 -354 -356s-354 153 -354 356s143 356 354 356s354 -153 354 -356zM214 350c0 -117 64 -204 166 -204s166 87 166 204s-64 204 -166 204s-166 -87 -166 -204z" />
    <glyph glyph-name="Ohungarumlaut" unicode="&#x150;" horiz-adv-x="760" 
d="M317 748h-115l68 148h186zM529 748h-115l68 148h186zM734 350c0 -203 -143 -356 -354 -356s-354 153 -354 356s143 356 354 356s354 -153 354 -356zM214 350c0 -117 64 -204 166 -204s166 87 166 204s-64 204 -166 204s-166 -87 -166 -204z" />
    <glyph glyph-name="Omacron" unicode="&#x14c;" horiz-adv-x="760" 
d="M545 776h-330v120h330v-120zM734 350c0 -203 -143 -356 -354 -356s-354 153 -354 356s143 356 354 356s354 -153 354 -356zM214 350c0 -117 64 -204 166 -204s166 87 166 204s-64 204 -166 204s-166 -87 -166 -204z" />
    <glyph glyph-name="Oslash" unicode="&#xd8;" horiz-adv-x="760" 
d="M649 706l85 -85l-61 -62c39 -58 61 -130 61 -209c0 -203 -143 -356 -354 -356c-80 0 -151 22 -207 61l-60 -61l-87 87l61 61c-39 58 -61 129 -61 208c0 203 143 356 354 356c81 0 151 -22 208 -61zM214 350c0 -25 3 -50 9 -72l247 248c-25 18 -55 28 -90 28
c-102 0 -166 -87 -166 -204zM546 350c0 26 -3 50 -9 72l-246 -249c25 -17 55 -27 89 -27c102 0 166 87 166 204z" />
    <glyph glyph-name="Otilde" unicode="&#xd5;" horiz-adv-x="760" 
d="M346 794c-19 0 -32 -15 -32 -34h-99v25c0 66 43 115 101 115c53 0 62 -38 99 -38c18 0 32 15 32 34h98v-25c0 -66 -43 -115 -100 -115c-54 0 -68 38 -99 38zM734 350c0 -203 -143 -356 -354 -356s-354 153 -354 356s143 356 354 356s354 -153 354 -356zM214 350
c0 -117 64 -204 166 -204s166 87 166 204s-64 204 -166 204s-166 -87 -166 -204z" />
    <glyph glyph-name="OE" unicode="&#x152;" horiz-adv-x="1109" 
d="M769 278v-122h310v-156h-494v53c-45 -37 -106 -59 -188 -59c-220 0 -371 153 -371 356s151 356 371 356c82 0 143 -22 188 -59v53h483v-156h-299v-120h239v-146h-239zM399 146c114 0 185 87 185 204s-71 204 -185 204s-185 -87 -185 -204s71 -204 185 -204z" />
    <glyph glyph-name="P" unicode="P" horiz-adv-x="637" 
d="M55 0v700h294c159 0 265 -95 265 -242s-106 -242 -265 -242h-110v-216h-184zM332 550h-93v-184h93c58 0 95 35 95 92s-37 92 -95 92z" />
    <glyph glyph-name="Thorn" unicode="&#xde;" horiz-adv-x="638" 
d="M55 0v700h184v-101h96c173 0 280 -95 280 -242s-110 -242 -279 -242h-97v-115h-184zM330 449h-91v-184h91c59 0 98 36 98 92s-39 92 -98 92z" />
    <glyph glyph-name="Q" unicode="Q" horiz-adv-x="768" 
d="M683 156h69v-156h-77c-60 0 -84 16 -107 43c-53 -31 -117 -49 -188 -49c-211 0 -354 153 -354 356s143 356 354 356s354 -153 354 -356c0 -73 -18 -139 -51 -194zM214 350c0 -117 64 -204 166 -204c32 0 60 8 84 24l-4 4c-14 17 -25 29 -45 29h-68v151h78
c65 0 83 -23 106 -51l9 -11c4 18 6 38 6 58c0 117 -64 204 -166 204s-166 -87 -166 -204z" />
    <glyph glyph-name="Q.ss08" horiz-adv-x="760" 
d="M734 350c0 -120 -50 -223 -135 -286l94 -142h-185l-52 79c-24 -5 -50 -7 -76 -7c-211 0 -354 153 -354 356s143 356 354 356s354 -153 354 -356zM214 350c0 -109 55 -192 145 -203l-59 90h185l19 -29c27 36 42 86 42 142c0 117 -64 204 -166 204s-166 -87 -166 -204z" />
    <glyph glyph-name="R" unicode="R" horiz-adv-x="653" 
d="M55 0v700h295c161 0 270 -95 270 -242c0 -86 -41 -156 -104 -197l127 -261h-202l-103 216h-99v-216h-184zM335 550h-96v-184h96c60 0 97 35 97 92s-37 92 -97 92z" />
    <glyph glyph-name="Racute" unicode="&#x154;" horiz-adv-x="653" 
d="M361 751h-125l68 145h196zM55 0v700h295c161 0 270 -95 270 -242c0 -86 -41 -156 -104 -197l127 -261h-202l-103 216h-99v-216h-184zM335 550h-96v-184h96c60 0 97 35 97 92s-37 92 -97 92z" />
    <glyph glyph-name="Rcaron" unicode="&#x158;" horiz-adv-x="653" 
d="M248 896l48 -46l48 46h157l-129 -145h-152l-129 145h157zM55 0v700h295c161 0 270 -95 270 -242c0 -86 -41 -156 -104 -197l127 -261h-202l-103 216h-99v-216h-184zM335 550h-96v-184h96c60 0 97 35 97 92s-37 92 -97 92z" />
    <glyph glyph-name="uni0156" unicode="&#x156;" horiz-adv-x="653" 
d="M55 0v700h295c161 0 270 -95 270 -242c0 -86 -41 -156 -104 -197l127 -261h-202l-103 216h-99v-216h-184zM335 550h-96v-184h96c60 0 97 35 97 92s-37 92 -97 92zM182 -195l56 148h167l-92 -148h-131z" />
    <glyph glyph-name="S" unicode="S" horiz-adv-x="634" 
d="M27 231l179 -4c4 -53 47 -92 122 -92c56 0 98 22 98 67c0 43 -42 52 -165 77c-121 25 -218 62 -218 208c0 127 106 219 273 219c170 0 279 -86 279 -224h-179c-4 47 -38 82 -100 82c-50 0 -88 -20 -88 -63c0 -42 39 -51 161 -75c123 -24 223 -59 222 -203
c-1 -136 -113 -229 -286 -229c-181 0 -298 92 -298 237z" />
    <glyph glyph-name="Sacute" unicode="&#x15a;" horiz-adv-x="634" 
d="M379 751h-125l68 145h196zM27 231l179 -4c4 -53 47 -92 122 -92c56 0 98 22 98 67c0 43 -42 52 -165 77c-121 25 -218 62 -218 208c0 127 106 219 273 219c170 0 279 -86 279 -224h-179c-4 47 -38 82 -100 82c-50 0 -88 -20 -88 -63c0 -42 39 -51 161 -75
c123 -24 223 -59 222 -203c-1 -136 -113 -229 -286 -229c-181 0 -298 92 -298 237z" />
    <glyph glyph-name="Scaron" unicode="&#x160;" horiz-adv-x="634" 
d="M266 896l48 -46l48 46h157l-129 -145h-152l-129 145h157zM27 231l179 -4c4 -53 47 -92 122 -92c56 0 98 22 98 67c0 43 -42 52 -165 77c-121 25 -218 62 -218 208c0 127 106 219 273 219c170 0 279 -86 279 -224h-179c-4 47 -38 82 -100 82c-50 0 -88 -20 -88 -63
c0 -42 39 -51 161 -75c123 -24 223 -59 222 -203c-1 -136 -113 -229 -286 -229c-181 0 -298 92 -298 237z" />
    <glyph glyph-name="Scedilla" unicode="&#x15e;" horiz-adv-x="634" 
d="M389 426c123 -24 223 -59 222 -203c-1 -125 -96 -214 -247 -227l-5 -20h13c62 0 100 -29 100 -78c0 -60 -46 -98 -118 -98h-136v79h100c14 0 23 8 23 22c0 12 -9 19 -23 19h-63l19 77c-152 15 -247 103 -247 234l179 -4c4 -53 47 -92 122 -92c56 0 98 22 98 67
c0 43 -42 52 -165 77c-121 25 -218 62 -218 208c0 127 106 219 273 219c170 0 279 -86 279 -224h-179c-4 47 -38 82 -100 82c-50 0 -88 -20 -88 -63c0 -42 39 -51 161 -75z" />
    <glyph glyph-name="Scircumflex" unicode="&#x15c;" horiz-adv-x="634" 
d="M362 751l-48 46l-48 -46h-157l129 145h152l129 -145h-157zM27 231l179 -4c4 -53 47 -92 122 -92c56 0 98 22 98 67c0 43 -42 52 -165 77c-121 25 -218 62 -218 208c0 127 106 219 273 219c170 0 279 -86 279 -224h-179c-4 47 -38 82 -100 82c-50 0 -88 -20 -88 -63
c0 -42 39 -51 161 -75c123 -24 223 -59 222 -203c-1 -136 -113 -229 -286 -229c-181 0 -298 92 -298 237z" />
    <glyph glyph-name="uni0218" unicode="&#x218;" horiz-adv-x="634" 
d="M27 231l179 -4c4 -53 47 -92 122 -92c56 0 98 22 98 67c0 43 -42 52 -165 77c-121 25 -218 62 -218 208c0 127 106 219 273 219c170 0 279 -86 279 -224h-179c-4 47 -38 82 -100 82c-50 0 -88 -20 -88 -63c0 -42 39 -51 161 -75c123 -24 223 -59 222 -203
c-1 -136 -113 -229 -286 -229c-181 0 -298 92 -298 237zM179 -195l56 148h167l-92 -148h-131z" />
    <glyph glyph-name="T" unicode="T" horiz-adv-x="602" 
d="M20 544v156h562v-156h-189v-544h-184v544h-189z" />
    <glyph glyph-name="Tbar" unicode="&#x166;" horiz-adv-x="602" 
d="M582 700v-156h-189v-147h105v-120h-105v-277h-184v277h-105v120h105v147h-189v156h562z" />
    <glyph glyph-name="Tcaron" unicode="&#x164;" horiz-adv-x="602" 
d="M258 896l48 -46l48 46h157l-129 -145h-152l-129 145h157zM20 544v156h562v-156h-189v-544h-184v544h-189z" />
    <glyph glyph-name="uni0162" unicode="&#x162;" horiz-adv-x="602" 
d="M393 544v-544h-50l-6 -24h13c62 0 100 -29 100 -78c0 -60 -46 -98 -118 -98h-136v79h100c14 0 23 8 23 22c0 12 -9 19 -23 19h-63l20 80h-44v544h-189v156h562v-156h-189z" />
    <glyph glyph-name="uni021A" unicode="&#x21a;" horiz-adv-x="602" 
d="M20 544v156h562v-156h-189v-544h-184v544h-189zM157 -195l56 148h167l-92 -148h-131z" />
    <glyph glyph-name="U" unicode="U" horiz-adv-x="698" 
d="M50 304v396h184v-406c0 -93 32 -145 115 -145s115 52 115 145v406h184v-396c0 -199 -103 -310 -299 -310s-299 111 -299 310z" />
    <glyph glyph-name="Uacute" unicode="&#xda;" horiz-adv-x="698" 
d="M414 751h-125l68 145h196zM50 304v396h184v-406c0 -93 32 -145 115 -145s115 52 115 145v406h184v-396c0 -199 -103 -310 -299 -310s-299 111 -299 310z" />
    <glyph glyph-name="Ubreve" unicode="&#x16c;" horiz-adv-x="698" 
d="M184 896h119c0 -28 18 -46 46 -46c27 0 45 18 45 46h120c-5 -90 -71 -152 -168 -152c-95 0 -158 62 -162 152zM50 304v396h184v-406c0 -93 32 -145 115 -145s115 52 115 145v406h184v-396c0 -199 -103 -310 -299 -310s-299 111 -299 310z" />
    <glyph glyph-name="Ucircumflex" unicode="&#xdb;" horiz-adv-x="698" 
d="M397 751l-48 46l-48 -46h-157l129 145h152l129 -145h-157zM50 304v396h184v-406c0 -93 32 -145 115 -145s115 52 115 145v406h184v-396c0 -199 -103 -310 -299 -310s-299 111 -299 310z" />
    <glyph glyph-name="Udieresis" unicode="&#xdc;" horiz-adv-x="698" 
d="M150 837c0 49 39 85 88 85c50 0 88 -36 88 -85c0 -48 -38 -84 -88 -84c-49 0 -88 36 -88 84zM373 837c0 49 38 85 87 85c50 0 88 -36 88 -85c0 -48 -38 -84 -88 -84c-49 0 -87 36 -87 84zM50 304v396h184v-406c0 -93 32 -145 115 -145s115 52 115 145v406h184v-396
c0 -199 -103 -310 -299 -310s-299 111 -299 310z" />
    <glyph glyph-name="Ugrave" unicode="&#xd9;" horiz-adv-x="698" 
d="M281 748l-131 148h196l63 -148h-128zM50 304v396h184v-406c0 -93 32 -145 115 -145s115 52 115 145v406h184v-396c0 -199 -103 -310 -299 -310s-299 111 -299 310z" />
    <glyph glyph-name="Uhungarumlaut" unicode="&#x170;" horiz-adv-x="698" 
d="M286 748h-115l68 148h186zM498 748h-115l68 148h186zM50 304v396h184v-406c0 -93 32 -145 115 -145s115 52 115 145v406h184v-396c0 -199 -103 -310 -299 -310s-299 111 -299 310z" />
    <glyph glyph-name="Umacron" unicode="&#x16a;" horiz-adv-x="698" 
d="M514 776h-330v120h330v-120zM50 304v396h184v-406c0 -93 32 -145 115 -145s115 52 115 145v406h184v-396c0 -199 -103 -310 -299 -310s-299 111 -299 310z" />
    <glyph glyph-name="Uogonek" unicode="&#x172;" horiz-adv-x="698" 
d="M516 -200h-96c-72 0 -129 39 -129 104c0 37 17 66 42 90c-16 1 -32 2 -46 4c-156 22 -237 129 -237 306v396h184v-406c0 -93 32 -145 115 -145s115 52 115 145v406h184v-396c0 -112 -33 -196 -100 -248c-75 -59 -122 -82 -122 -124c0 -13 9 -19 26 -19h64v-113z" />
    <glyph glyph-name="Uring" unicode="&#x16e;" horiz-adv-x="698" 
d="M211 801c0 70 61 126 138 126s138 -56 138 -126c0 -71 -61 -127 -138 -127s-138 56 -138 127zM405 801c0 31 -25 55 -56 55s-56 -24 -56 -55c0 -32 25 -56 56 -56s56 24 56 56zM50 304v396h184v-406c0 -93 32 -145 115 -145s115 52 115 145v406h184v-396
c0 -199 -103 -310 -299 -310s-299 111 -299 310z" />
    <glyph glyph-name="Utilde" unicode="&#x168;" horiz-adv-x="698" 
d="M315 794c-19 0 -32 -15 -32 -34h-99v25c0 66 43 115 101 115c53 0 62 -38 99 -38c18 0 32 15 32 34h98v-25c0 -66 -43 -115 -100 -115c-54 0 -68 38 -99 38zM50 304v396h184v-406c0 -93 32 -145 115 -145s115 52 115 145v406h184v-396c0 -199 -103 -310 -299 -310
s-299 111 -299 310z" />
    <glyph glyph-name="V" unicode="V" horiz-adv-x="669" 
d="M226 0l-231 700h195l144 -476l149 476h191l-230 -700h-218z" />
    <glyph glyph-name="W" unicode="W" horiz-adv-x="990" 
d="M187 0l-189 700l190 2l111 -472l118 470h160l115 -470l115 470h185l-189 -700h-210l-100 417l-96 -417h-210z" />
    <glyph glyph-name="Wacute" unicode="&#x1e82;" horiz-adv-x="990" 
d="M556 751h-125l68 145h196zM187 0l-189 700l190 2l111 -472l118 470h160l115 -470l115 470h185l-189 -700h-210l-100 417l-96 -417h-210z" />
    <glyph glyph-name="Wcircumflex" unicode="&#x174;" horiz-adv-x="990" 
d="M539 751l-48 46l-48 -46h-157l129 145h152l129 -145h-157zM187 0l-189 700l190 2l111 -472l118 470h160l115 -470l115 470h185l-189 -700h-210l-100 417l-96 -417h-210z" />
    <glyph glyph-name="Wdieresis" unicode="&#x1e84;" horiz-adv-x="990" 
d="M292 837c0 49 39 85 88 85c50 0 88 -36 88 -85c0 -48 -38 -84 -88 -84c-49 0 -88 36 -88 84zM515 837c0 49 38 85 87 85c50 0 88 -36 88 -85c0 -48 -38 -84 -88 -84c-49 0 -87 36 -87 84zM187 0l-189 700l190 2l111 -472l118 470h160l115 -470l115 470h185l-189 -700
h-210l-100 417l-96 -417h-210z" />
    <glyph glyph-name="Wgrave" unicode="&#x1e80;" horiz-adv-x="990" 
d="M423 748l-131 148h196l63 -148h-128zM187 0l-189 700l190 2l111 -472l118 470h160l115 -470l115 470h185l-189 -700h-210l-100 417l-96 -417h-210z" />
    <glyph glyph-name="X" unicode="X" horiz-adv-x="693" 
d="M7 0l224 357l-215 343h219l115 -196l123 196h204l-215 -343l224 -357h-220l-124 211l-132 -211h-203z" />
    <glyph glyph-name="Y" unicode="Y" horiz-adv-x="680" 
d="M248 260l-253 440h215l130 -255l141 255h204l-253 -440v-260h-184v260z" />
    <glyph glyph-name="Yacute" unicode="&#xdd;" horiz-adv-x="680" 
d="M411 751h-125l68 145h196zM248 260l-253 440h215l130 -255l141 255h204l-253 -440v-260h-184v260z" />
    <glyph glyph-name="Ycircumflex" unicode="&#x176;" horiz-adv-x="680" 
d="M394 751l-48 46l-48 -46h-157l129 145h152l129 -145h-157zM248 260l-253 440h215l130 -255l141 255h204l-253 -440v-260h-184v260z" />
    <glyph glyph-name="Ydieresis" unicode="&#x178;" horiz-adv-x="680" 
d="M147 837c0 49 39 85 88 85c50 0 88 -36 88 -85c0 -48 -38 -84 -88 -84c-49 0 -88 36 -88 84zM370 837c0 49 38 85 87 85c50 0 88 -36 88 -85c0 -48 -38 -84 -88 -84c-49 0 -87 36 -87 84zM248 260l-253 440h215l130 -255l141 255h204l-253 -440v-260h-184v260z" />
    <glyph glyph-name="Ygrave" unicode="&#x1ef2;" horiz-adv-x="680" 
d="M278 748l-131 148h196l63 -148h-128zM248 260l-253 440h215l130 -255l141 255h204l-253 -440v-260h-184v260z" />
    <glyph glyph-name="Z" unicode="Z" horiz-adv-x="639" 
d="M32 546v154h575v-118l-327 -428h334v-154h-589v118l327 428h-320z" />
    <glyph glyph-name="Zacute" unicode="&#x179;" horiz-adv-x="639" 
d="M385 751h-125l68 145h196zM32 546v154h575v-118l-327 -428h334v-154h-589v118l327 428h-320z" />
    <glyph glyph-name="Zcaron" unicode="&#x17d;" horiz-adv-x="639" 
d="M272 896l48 -46l48 46h157l-129 -145h-152l-129 145h157zM32 546v154h575v-118l-327 -428h334v-154h-589v118l327 428h-320z" />
    <glyph glyph-name="Zdotaccent" unicode="&#x17b;" horiz-adv-x="639" 
d="M320 738c-55 0 -97 40 -97 94s42 94 97 94s97 -40 97 -94s-42 -94 -97 -94zM32 546v154h575v-118l-327 -428h334v-154h-589v118l327 428h-320z" />
    <glyph glyph-name="a" unicode="a" horiz-adv-x="572" 
d="M556 142h11v-142h-87c-72 0 -97 35 -97 80v4c-38 -60 -90 -90 -165 -90c-111 0 -194 51 -194 152c0 113 88 177 253 177h76v20c0 36 -25 60 -73 60c-46 0 -77 -20 -80 -50h-166c9 100 107 169 251 169c151 0 239 -64 239 -189v-160c0 -26 11 -31 32 -31zM353 214v2h-73
c-52 0 -82 -22 -82 -57c0 -28 22 -46 57 -46c59 0 97 39 98 101z" />
    <glyph glyph-name="a.ss01" horiz-adv-x="621" 
d="M408 452l15 64h153v-516h-154l-13 67c-33 -41 -82 -72 -149 -72c-137 -1 -236 104 -236 264c0 162 99 265 234 265c68 0 117 -30 150 -72zM303 131c65 0 102 51 102 126s-37 127 -102 127c-64 0 -103 -52 -103 -127s39 -126 103 -126z" />
    <glyph glyph-name="a.ss02" horiz-adv-x="559" 
d="M285 522c151 0 239 -64 239 -189v-333h-153l-13 59c-38 -43 -82 -65 -149 -65c-112 0 -185 53 -185 154c0 112 89 175 255 175h74v20c0 36 -25 60 -73 60c-46 0 -77 -20 -80 -50h-166c9 100 107 169 251 169zM255 113c59 0 97 39 98 101v2h-73c-52 0 -82 -22 -82 -57
c0 -28 22 -46 57 -46z" />
    <glyph glyph-name="aacute" unicode="&#xe1;" horiz-adv-x="572" 
d="M291 712h196l-139 -145h-125zM556 142h11v-142h-87c-72 0 -97 35 -97 80v4c-38 -60 -90 -90 -165 -90c-111 0 -194 51 -194 152c0 113 88 177 253 177h76v20c0 36 -25 60 -73 60c-46 0 -77 -20 -80 -50h-166c9 100 107 169 251 169c151 0 239 -64 239 -189v-160
c0 -26 11 -31 32 -31zM353 214v2h-73c-52 0 -82 -22 -82 -57c0 -28 22 -46 57 -46c59 0 97 39 98 101z" />
    <glyph glyph-name="aacute.ss01" horiz-adv-x="621" 
d="M319 712h196l-139 -145h-125zM408 452l15 64h153v-516h-154l-13 67c-33 -41 -82 -72 -149 -72c-137 -1 -236 104 -236 264c0 162 99 265 234 265c68 0 117 -30 150 -72zM303 131c65 0 102 51 102 126s-37 127 -102 127c-64 0 -103 -52 -103 -127s39 -126 103 -126z" />
    <glyph glyph-name="aacute.ss02" horiz-adv-x="559" 
d="M291 712h196l-139 -145h-125zM285 522c151 0 239 -64 239 -189v-333h-153l-13 59c-38 -43 -82 -65 -149 -65c-112 0 -185 53 -185 154c0 112 89 175 255 175h74v20c0 36 -25 60 -73 60c-46 0 -77 -20 -80 -50h-166c9 100 107 169 251 169zM255 113c59 0 97 39 98 101v2
h-73c-52 0 -82 -22 -82 -57c0 -28 22 -46 57 -46z" />
    <glyph glyph-name="abreve" unicode="&#x103;" horiz-adv-x="572" 
d="M280 560c-95 0 -158 62 -162 152h119c0 -28 18 -46 46 -46c27 0 45 18 45 46h120c-5 -90 -71 -152 -168 -152zM556 142h11v-142h-87c-72 0 -97 35 -97 80v4c-38 -60 -90 -90 -165 -90c-111 0 -194 51 -194 152c0 113 88 177 253 177h76v20c0 36 -25 60 -73 60
c-46 0 -77 -20 -80 -50h-166c9 100 107 169 251 169c151 0 239 -64 239 -189v-160c0 -26 11 -31 32 -31zM353 214v2h-73c-52 0 -82 -22 -82 -57c0 -28 22 -46 57 -46c59 0 97 39 98 101z" />
    <glyph glyph-name="abreve.ss01" horiz-adv-x="621" 
d="M308 560c-95 0 -158 62 -162 152h119c0 -28 18 -46 46 -46c27 0 45 18 45 46h120c-5 -90 -71 -152 -168 -152zM408 452l15 64h153v-516h-154l-13 67c-33 -41 -82 -72 -149 -72c-137 -1 -236 104 -236 264c0 162 99 265 234 265c68 0 117 -30 150 -72zM303 131
c65 0 102 51 102 126s-37 127 -102 127c-64 0 -103 -52 -103 -127s39 -126 103 -126z" />
    <glyph glyph-name="abreve.ss02" horiz-adv-x="559" 
d="M280 560c-95 0 -158 62 -162 152h119c0 -28 18 -46 46 -46c27 0 45 18 45 46h120c-5 -90 -71 -152 -168 -152zM285 522c151 0 239 -64 239 -189v-333h-153l-13 59c-38 -43 -82 -65 -149 -65c-112 0 -185 53 -185 154c0 112 89 175 255 175h74v20c0 36 -25 60 -73 60
c-46 0 -77 -20 -80 -50h-166c9 100 107 169 251 169zM255 113c59 0 97 39 98 101v2h-73c-52 0 -82 -22 -82 -57c0 -28 22 -46 57 -46z" />
    <glyph glyph-name="acircumflex" unicode="&#xe2;" horiz-adv-x="572" 
d="M331 567l-48 46l-48 -46h-157l129 145h152l129 -145h-157zM556 142h11v-142h-87c-72 0 -97 35 -97 80v4c-38 -60 -90 -90 -165 -90c-111 0 -194 51 -194 152c0 113 88 177 253 177h76v20c0 36 -25 60 -73 60c-46 0 -77 -20 -80 -50h-166c9 100 107 169 251 169
c151 0 239 -64 239 -189v-160c0 -26 11 -31 32 -31zM353 214v2h-73c-52 0 -82 -22 -82 -57c0 -28 22 -46 57 -46c59 0 97 39 98 101z" />
    <glyph glyph-name="acircumflex.ss01" horiz-adv-x="621" 
d="M359 567l-48 46l-48 -46h-157l129 145h152l129 -145h-157zM408 452l15 64h153v-516h-154l-13 67c-33 -41 -82 -72 -149 -72c-137 -1 -236 104 -236 264c0 162 99 265 234 265c68 0 117 -30 150 -72zM303 131c65 0 102 51 102 126s-37 127 -102 127
c-64 0 -103 -52 -103 -127s39 -126 103 -126z" />
    <glyph glyph-name="acircumflex.ss02" horiz-adv-x="559" 
d="M331 567l-48 46l-48 -46h-157l129 145h152l129 -145h-157zM285 522c151 0 239 -64 239 -189v-333h-153l-13 59c-38 -43 -82 -65 -149 -65c-112 0 -185 53 -185 154c0 112 89 175 255 175h74v20c0 36 -25 60 -73 60c-46 0 -77 -20 -80 -50h-166c9 100 107 169 251 169z
M255 113c59 0 97 39 98 101v2h-73c-52 0 -82 -22 -82 -57c0 -28 22 -46 57 -46z" />
    <glyph glyph-name="adieresis" unicode="&#xe4;" horiz-adv-x="572" 
d="M172 569c-49 0 -88 36 -88 84c0 49 39 85 88 85c50 0 88 -36 88 -85c0 -48 -38 -84 -88 -84zM394 569c-49 0 -87 36 -87 84c0 49 38 85 87 85c50 0 88 -36 88 -85c0 -48 -38 -84 -88 -84zM556 142h11v-142h-87c-72 0 -97 35 -97 80v4c-38 -60 -90 -90 -165 -90
c-111 0 -194 51 -194 152c0 113 88 177 253 177h76v20c0 36 -25 60 -73 60c-46 0 -77 -20 -80 -50h-166c9 100 107 169 251 169c151 0 239 -64 239 -189v-160c0 -26 11 -31 32 -31zM353 214v2h-73c-52 0 -82 -22 -82 -57c0 -28 22 -46 57 -46c59 0 97 39 98 101z" />
    <glyph glyph-name="adieresis.ss01" horiz-adv-x="621" 
d="M200 569c-49 0 -88 36 -88 84c0 49 39 85 88 85c50 0 88 -36 88 -85c0 -48 -38 -84 -88 -84zM422 569c-49 0 -87 36 -87 84c0 49 38 85 87 85c50 0 88 -36 88 -85c0 -48 -38 -84 -88 -84zM408 452l15 64h153v-516h-154l-13 67c-33 -41 -82 -72 -149 -72
c-137 -1 -236 104 -236 264c0 162 99 265 234 265c68 0 117 -30 150 -72zM303 131c65 0 102 51 102 126s-37 127 -102 127c-64 0 -103 -52 -103 -127s39 -126 103 -126z" />
    <glyph glyph-name="adieresis.ss02" horiz-adv-x="559" 
d="M172 569c-49 0 -88 36 -88 84c0 49 39 85 88 85c50 0 88 -36 88 -85c0 -48 -38 -84 -88 -84zM394 569c-49 0 -87 36 -87 84c0 49 38 85 87 85c50 0 88 -36 88 -85c0 -48 -38 -84 -88 -84zM285 522c151 0 239 -64 239 -189v-333h-153l-13 59c-38 -43 -82 -65 -149 -65
c-112 0 -185 53 -185 154c0 112 89 175 255 175h74v20c0 36 -25 60 -73 60c-46 0 -77 -20 -80 -50h-166c9 100 107 169 251 169zM255 113c59 0 97 39 98 101v2h-73c-52 0 -82 -22 -82 -57c0 -28 22 -46 57 -46z" />
    <glyph glyph-name="agrave" unicode="&#xe0;" horiz-adv-x="572" 
d="M280 712l63 -148h-128l-131 148h196zM556 142h11v-142h-87c-72 0 -97 35 -97 80v4c-38 -60 -90 -90 -165 -90c-111 0 -194 51 -194 152c0 113 88 177 253 177h76v20c0 36 -25 60 -73 60c-46 0 -77 -20 -80 -50h-166c9 100 107 169 251 169c151 0 239 -64 239 -189v-160
c0 -26 11 -31 32 -31zM353 214v2h-73c-52 0 -82 -22 -82 -57c0 -28 22 -46 57 -46c59 0 97 39 98 101z" />
    <glyph glyph-name="agrave.ss01" horiz-adv-x="621" 
d="M308 712l63 -148h-128l-131 148h196zM408 452l15 64h153v-516h-154l-13 67c-33 -41 -82 -72 -149 -72c-137 -1 -236 104 -236 264c0 162 99 265 234 265c68 0 117 -30 150 -72zM303 131c65 0 102 51 102 126s-37 127 -102 127c-64 0 -103 -52 -103 -127s39 -126 103 -126
z" />
    <glyph glyph-name="agrave.ss02" horiz-adv-x="559" 
d="M280 712l63 -148h-128l-131 148h196zM285 522c151 0 239 -64 239 -189v-333h-153l-13 59c-38 -43 -82 -65 -149 -65c-112 0 -185 53 -185 154c0 112 89 175 255 175h74v20c0 36 -25 60 -73 60c-46 0 -77 -20 -80 -50h-166c9 100 107 169 251 169zM255 113
c59 0 97 39 98 101v2h-73c-52 0 -82 -22 -82 -57c0 -28 22 -46 57 -46z" />
    <glyph glyph-name="amacron" unicode="&#x101;" horiz-adv-x="572" 
d="M118 712h330v-120h-330v120zM556 142h11v-142h-87c-72 0 -97 35 -97 80v4c-38 -60 -90 -90 -165 -90c-111 0 -194 51 -194 152c0 113 88 177 253 177h76v20c0 36 -25 60 -73 60c-46 0 -77 -20 -80 -50h-166c9 100 107 169 251 169c151 0 239 -64 239 -189v-160
c0 -26 11 -31 32 -31zM353 214v2h-73c-52 0 -82 -22 -82 -57c0 -28 22 -46 57 -46c59 0 97 39 98 101z" />
    <glyph glyph-name="amacron.ss01" horiz-adv-x="621" 
d="M146 712h330v-120h-330v120zM408 452l15 64h153v-516h-154l-13 67c-33 -41 -82 -72 -149 -72c-137 -1 -236 104 -236 264c0 162 99 265 234 265c68 0 117 -30 150 -72zM303 131c65 0 102 51 102 126s-37 127 -102 127c-64 0 -103 -52 -103 -127s39 -126 103 -126z" />
    <glyph glyph-name="amacron.ss02" horiz-adv-x="559" 
d="M118 712h330v-120h-330v120zM285 522c151 0 239 -64 239 -189v-333h-153l-13 59c-38 -43 -82 -65 -149 -65c-112 0 -185 53 -185 154c0 112 89 175 255 175h74v20c0 36 -25 60 -73 60c-46 0 -77 -20 -80 -50h-166c9 100 107 169 251 169zM255 113c59 0 97 39 98 101v2
h-73c-52 0 -82 -22 -82 -57c0 -28 22 -46 57 -46z" />
    <glyph glyph-name="aogonek" unicode="&#x105;" horiz-adv-x="572" 
d="M567 142v-142c-61 -24 -90 -45 -90 -68c0 -13 9 -19 26 -19h64v-113h-96c-72 0 -129 39 -129 104c0 51 29 86 69 114c-20 14 -28 36 -28 62v4c-38 -60 -90 -90 -165 -90c-111 0 -194 51 -194 152c0 113 88 177 253 177h76v20c0 36 -25 60 -73 60c-46 0 -77 -20 -80 -50
h-166c9 100 107 169 251 169c151 0 239 -64 239 -189v-160c0 -26 11 -31 32 -31h11zM353 214v2h-73c-52 0 -82 -22 -82 -57c0 -28 22 -46 57 -46c59 0 97 39 98 101z" />
    <glyph glyph-name="aogonek.ss01" horiz-adv-x="621" 
d="M487 -68c0 -13 9 -19 26 -19h64v-113h-96c-72 0 -129 39 -129 104c0 50 28 84 67 112l-10 51c-33 -41 -82 -72 -149 -72c-137 -1 -236 104 -236 264c0 162 99 265 234 265c68 0 117 -30 150 -72l15 64h153v-516h1c-61 -24 -90 -45 -90 -68zM303 131c65 0 102 51 102 126
s-37 127 -102 127c-64 0 -103 -52 -103 -127s39 -126 103 -126z" />
    <glyph glyph-name="aogonek.ss02" horiz-adv-x="559" 
d="M524 333v-333c-61 -24 -90 -45 -90 -68c0 -13 9 -19 26 -19h64v-113h-96c-72 0 -129 39 -129 104c0 50 29 85 68 113l-9 42c-38 -43 -82 -65 -149 -65c-112 0 -185 53 -185 154c0 112 89 175 255 175h74v20c0 36 -25 60 -73 60c-46 0 -77 -20 -80 -50h-166
c9 100 107 169 251 169c151 0 239 -64 239 -189zM255 113c59 0 97 39 98 101v2h-73c-52 0 -82 -22 -82 -57c0 -28 22 -46 57 -46z" />
    <glyph glyph-name="aring" unicode="&#xe5;" horiz-adv-x="572" 
d="M283 550c-77 0 -138 56 -138 127c0 70 61 126 138 126s138 -56 138 -126c0 -71 -61 -127 -138 -127zM283 732c-31 0 -56 -24 -56 -55c0 -32 25 -56 56 -56s56 24 56 56c0 31 -25 55 -56 55zM556 142h11v-142h-87c-72 0 -97 35 -97 80v4c-38 -60 -90 -90 -165 -90
c-111 0 -194 51 -194 152c0 113 88 177 253 177h76v20c0 36 -25 60 -73 60c-46 0 -77 -20 -80 -50h-166c9 100 107 169 251 169c151 0 239 -64 239 -189v-160c0 -26 11 -31 32 -31zM353 214v2h-73c-52 0 -82 -22 -82 -57c0 -28 22 -46 57 -46c59 0 97 39 98 101z" />
    <glyph glyph-name="aring.ss01" horiz-adv-x="621" 
d="M311 550c-77 0 -138 56 -138 127c0 70 61 126 138 126s138 -56 138 -126c0 -71 -61 -127 -138 -127zM311 732c-31 0 -56 -24 -56 -55c0 -32 25 -56 56 -56s56 24 56 56c0 31 -25 55 -56 55zM408 452l15 64h153v-516h-154l-13 67c-33 -41 -82 -72 -149 -72
c-137 -1 -236 104 -236 264c0 162 99 265 234 265c68 0 117 -30 150 -72zM303 131c65 0 102 51 102 126s-37 127 -102 127c-64 0 -103 -52 -103 -127s39 -126 103 -126z" />
    <glyph glyph-name="aring.ss02" horiz-adv-x="559" 
d="M283 550c-77 0 -138 56 -138 127c0 70 61 126 138 126s138 -56 138 -126c0 -71 -61 -127 -138 -127zM283 732c-31 0 -56 -24 -56 -55c0 -32 25 -56 56 -56s56 24 56 56c0 31 -25 55 -56 55zM285 522c151 0 239 -64 239 -189v-333h-153l-13 59c-38 -43 -82 -65 -149 -65
c-112 0 -185 53 -185 154c0 112 89 175 255 175h74v20c0 36 -25 60 -73 60c-46 0 -77 -20 -80 -50h-166c9 100 107 169 251 169zM255 113c59 0 97 39 98 101v2h-73c-52 0 -82 -22 -82 -57c0 -28 22 -46 57 -46z" />
    <glyph glyph-name="atilde" unicode="&#xe3;" horiz-adv-x="572" 
d="M249 610c-19 0 -32 -15 -32 -34h-99v25c0 66 43 115 101 115c53 0 62 -38 99 -38c18 0 32 15 32 34h98v-25c0 -66 -43 -115 -100 -115c-54 0 -68 38 -99 38zM556 142h11v-142h-87c-72 0 -97 35 -97 80v4c-38 -60 -90 -90 -165 -90c-111 0 -194 51 -194 152
c0 113 88 177 253 177h76v20c0 36 -25 60 -73 60c-46 0 -77 -20 -80 -50h-166c9 100 107 169 251 169c151 0 239 -64 239 -189v-160c0 -26 11 -31 32 -31zM353 214v2h-73c-52 0 -82 -22 -82 -57c0 -28 22 -46 57 -46c59 0 97 39 98 101z" />
    <glyph glyph-name="atilde.ss01" horiz-adv-x="621" 
d="M277 610c-19 0 -32 -15 -32 -34h-99v25c0 66 43 115 101 115c53 0 62 -38 99 -38c18 0 32 15 32 34h98v-25c0 -66 -43 -115 -100 -115c-54 0 -68 38 -99 38zM408 452l15 64h153v-516h-154l-13 67c-33 -41 -82 -72 -149 -72c-137 -1 -236 104 -236 264
c0 162 99 265 234 265c68 0 117 -30 150 -72zM303 131c65 0 102 51 102 126s-37 127 -102 127c-64 0 -103 -52 -103 -127s39 -126 103 -126z" />
    <glyph glyph-name="atilde.ss02" horiz-adv-x="559" 
d="M249 610c-19 0 -32 -15 -32 -34h-99v25c0 66 43 115 101 115c53 0 62 -38 99 -38c18 0 32 15 32 34h98v-25c0 -66 -43 -115 -100 -115c-54 0 -68 38 -99 38zM285 522c151 0 239 -64 239 -189v-333h-153l-13 59c-38 -43 -82 -65 -149 -65c-112 0 -185 53 -185 154
c0 112 89 175 255 175h74v20c0 36 -25 60 -73 60c-46 0 -77 -20 -80 -50h-166c9 100 107 169 251 169zM255 113c59 0 97 39 98 101v2h-73c-52 0 -82 -22 -82 -57c0 -28 22 -46 57 -46z" />
    <glyph glyph-name="ae" unicode="&#xe6;" horiz-adv-x="914" 
d="M885 217h-360v-2c0 -49 38 -96 97 -96c51 0 82 19 92 57h170c-14 -99 -109 -182 -258 -182c-91 0 -159 31 -200 86c-52 -60 -109 -86 -201 -86c-108 0 -201 51 -201 152c0 106 88 166 253 166h76v31c0 36 -31 60 -78 60c-42 0 -72 -20 -75 -50h-166
c9 100 107 169 251 169c70 0 139 -20 179 -60c41 39 97 60 167 60c154 0 259 -99 259 -249c0 -18 -1 -37 -5 -56zM622 399c-53 0 -87 -27 -95 -76h192c-10 49 -45 76 -97 76zM353 205v5h-64c-55 0 -91 -18 -91 -51c0 -28 22 -46 57 -46c59 0 98 36 98 92z" />
    <glyph glyph-name="aeacute" unicode="&#x1fd;" horiz-adv-x="914" 
d="M457 700h196l-139 -145h-125zM885 217h-360v-2c8 -60 38 -96 100 -96c48 0 79 19 89 57h170c-14 -99 -103 -182 -247 -182c-95 0 -167 32 -209 87c-53 -61 -110 -87 -203 -87c-108 0 -201 51 -201 152c0 106 88 166 253 166h76v31c0 36 -31 60 -78 60
c-42 0 -72 -20 -75 -50h-166c9 110 105 169 249 169c70 0 141 -21 181 -61c41 39 94 61 157 61c160 0 269 -99 269 -249c0 -18 -1 -37 -5 -56zM622 399c-53 0 -87 -27 -95 -76h192c-10 49 -45 76 -97 76zM353 205v5h-64c-55 0 -91 -18 -91 -51c0 -28 22 -46 57 -46
c59 0 98 36 98 92z" />
    <glyph glyph-name="b" unicode="b" horiz-adv-x="621" 
d="M363 522c135 0 234 -101 234 -263c0 -160 -99 -265 -236 -265c-68 0 -116 30 -149 73l-15 -67h-152v700h173v-241c33 38 80 63 145 63zM318 131c64 0 103 52 103 127s-39 127 -103 127c-65 0 -102 -52 -102 -127s37 -127 102 -127z" />
    <glyph glyph-name="c" unicode="c" horiz-adv-x="581" 
d="M295 -6c-171 0 -271 101 -271 264c0 162 105 264 277 264c148 0 240 -79 259 -207h-180c-10 42 -38 69 -82 69c-61 0 -98 -51 -98 -126s37 -126 98 -126c46 0 75 28 83 73h180c-19 -130 -118 -211 -266 -211z" />
    <glyph glyph-name="cacute" unicode="&#x107;" horiz-adv-x="581" 
d="M367 567h-125l68 145h196zM295 -6c-171 0 -271 101 -271 264c0 162 105 264 277 264c148 0 240 -79 259 -207h-180c-10 42 -38 69 -82 69c-61 0 -98 -51 -98 -126s37 -126 98 -126c46 0 75 28 83 73h180c-19 -130 -118 -211 -266 -211z" />
    <glyph glyph-name="ccaron" unicode="&#x10d;" horiz-adv-x="581" 
d="M254 712l48 -46l48 46h157l-129 -145h-152l-129 145h157zM295 -6c-171 0 -271 101 -271 264c0 162 105 264 277 264c148 0 240 -79 259 -207h-180c-10 42 -38 69 -82 69c-61 0 -98 -51 -98 -126s37 -126 98 -126c46 0 75 28 83 73h180c-19 -130 -118 -211 -266 -211z" />
    <glyph glyph-name="ccedilla" unicode="&#xe7;" horiz-adv-x="581" 
d="M381 205h180c-17 -115 -96 -192 -217 -208l-6 -21h13c62 0 100 -29 100 -78c0 -60 -46 -98 -118 -98h-136v79h100c14 0 23 8 23 22c0 12 -9 19 -23 19h-63l19 76c-145 16 -229 113 -229 262c0 162 105 264 277 264c148 0 240 -79 259 -207h-180c-10 42 -38 69 -82 69
c-61 0 -98 -51 -98 -126s37 -126 98 -126c46 0 75 28 83 73z" />
    <glyph glyph-name="ccircumflex" unicode="&#x109;" horiz-adv-x="581" 
d="M350 567l-48 46l-48 -46h-157l129 145h152l129 -145h-157zM295 -6c-171 0 -271 101 -271 264c0 162 105 264 277 264c148 0 240 -79 259 -207h-180c-10 42 -38 69 -82 69c-61 0 -98 -51 -98 -126s37 -126 98 -126c46 0 75 28 83 73h180c-19 -130 -118 -211 -266 -211z
" />
    <glyph glyph-name="cdotaccent" unicode="&#x10b;" horiz-adv-x="581" 
d="M302 554c-55 0 -97 40 -97 94s42 94 97 94s97 -40 97 -94s-42 -94 -97 -94zM295 -6c-171 0 -271 101 -271 264c0 162 105 264 277 264c148 0 240 -79 259 -207h-180c-10 42 -38 69 -82 69c-61 0 -98 -51 -98 -126s37 -126 98 -126c46 0 75 28 83 73h180
c-19 -130 -118 -211 -266 -211z" />
    <glyph glyph-name="d" unicode="d" horiz-adv-x="621" 
d="M403 459v241h173v-700h-152l-15 67c-33 -43 -81 -73 -149 -73c-137 0 -236 105 -236 265c0 162 99 263 234 263c65 0 112 -25 145 -63zM303 131c65 0 102 52 102 127s-37 127 -102 127c-64 0 -103 -52 -103 -127s39 -127 103 -127z" />
    <glyph glyph-name="eth" unicode="&#xf0;" horiz-adv-x="614" 
d="M490 629l-67 -38c91 -73 157 -175 157 -312c0 -153 -86 -285 -282 -285c-169 0 -274 103 -274 238c0 154 119 215 231 215c46 0 83 -7 140 -45c-21 44 -55 82 -100 115l-110 -63l-52 86l65 37c-29 16 -60 30 -94 45l99 84c42 -14 85 -32 125 -54l111 64zM298 129
c63 0 104 42 104 102s-41 102 -104 102c-59 0 -98 -42 -98 -102s39 -102 98 -102z" />
    <glyph glyph-name="dcaron" unicode="&#x10f;" horiz-adv-x="691" 
d="M403 459v241h173v-700h-152l-15 67c-33 -43 -81 -73 -149 -73c-137 0 -236 105 -236 265c0 162 99 263 234 263c65 0 112 -25 145 -63zM605 551l33 149h161l-73 -149h-121zM303 131c65 0 102 52 102 127s-37 127 -102 127c-64 0 -103 -52 -103 -127s39 -127 103 -127z
" />
    <glyph glyph-name="dcroat" unicode="&#x111;" horiz-adv-x="631" 
d="M576 659h69v-120h-69v-539h-152l-15 67c-33 -43 -81 -73 -149 -73c-137 0 -236 105 -236 265c0 162 99 263 234 263c65 0 112 -25 145 -63v80h-132v120h132v41h173v-41zM303 131c65 0 102 52 102 127s-37 127 -102 127c-64 0 -103 -52 -103 -127s39 -127 103 -127z" />
    <glyph glyph-name="e" unicode="e" horiz-adv-x="593" 
d="M309 -6c-181 0 -285 102 -285 262c0 163 109 266 276 266c159 0 269 -99 269 -249c0 -18 -1 -37 -5 -56h-360v-7c3 -60 43 -91 100 -91c48 0 79 19 89 57h170c-14 -99 -106 -182 -254 -182zM206 323h192c-10 49 -45 76 -97 76c-53 0 -87 -27 -95 -76z" />
    <glyph glyph-name="eacute" unicode="&#xe9;" horiz-adv-x="593" 
d="M365 567h-125l68 145h196zM309 -6c-181 0 -285 102 -285 262c0 163 109 266 276 266c159 0 269 -99 269 -249c0 -18 -1 -37 -5 -56h-360v-7c3 -60 43 -91 100 -91c48 0 79 19 89 57h170c-14 -99 -106 -182 -254 -182zM206 323h192c-10 49 -45 76 -97 76
c-53 0 -87 -27 -95 -76z" />
    <glyph glyph-name="ebreve" unicode="&#x115;" horiz-adv-x="593" 
d="M135 712h119c0 -28 18 -46 46 -46c27 0 45 18 45 46h120c-5 -90 -71 -152 -168 -152c-95 0 -158 62 -162 152zM309 -6c-181 0 -285 102 -285 262c0 163 109 266 276 266c159 0 269 -99 269 -249c0 -18 -1 -37 -5 -56h-360v-7c3 -60 43 -91 100 -91c48 0 79 19 89 57h170
c-14 -99 -106 -182 -254 -182zM206 323h192c-10 49 -45 76 -97 76c-53 0 -87 -27 -95 -76z" />
    <glyph glyph-name="ecaron" unicode="&#x11b;" horiz-adv-x="593" 
d="M252 712l48 -46l48 46h157l-129 -145h-152l-129 145h157zM309 -6c-181 0 -285 102 -285 262c0 163 109 266 276 266c159 0 269 -99 269 -249c0 -18 -1 -37 -5 -56h-360v-7c3 -60 43 -91 100 -91c48 0 79 19 89 57h170c-14 -99 -106 -182 -254 -182zM206 323h192
c-10 49 -45 76 -97 76c-53 0 -87 -27 -95 -76z" />
    <glyph glyph-name="ecircumflex" unicode="&#xea;" horiz-adv-x="593" 
d="M348 567l-48 46l-48 -46h-157l129 145h152l129 -145h-157zM309 -6c-181 0 -285 102 -285 262c0 163 109 266 276 266c159 0 269 -99 269 -249c0 -18 -1 -37 -5 -56h-360v-7c3 -60 43 -91 100 -91c48 0 79 19 89 57h170c-14 -99 -106 -182 -254 -182zM206 323h192
c-10 49 -45 76 -97 76c-53 0 -87 -27 -95 -76z" />
    <glyph glyph-name="edieresis" unicode="&#xeb;" horiz-adv-x="593" 
d="M101 653c0 49 39 85 88 85c50 0 88 -36 88 -85c0 -48 -38 -84 -88 -84c-49 0 -88 36 -88 84zM324 653c0 49 38 85 87 85c50 0 88 -36 88 -85c0 -48 -38 -84 -88 -84c-49 0 -87 36 -87 84zM309 -6c-181 0 -285 102 -285 262c0 163 109 266 276 266c159 0 269 -99 269 -249
c0 -18 -1 -37 -5 -56h-360v-7c3 -60 43 -91 100 -91c48 0 79 19 89 57h170c-14 -99 -106 -182 -254 -182zM206 323h192c-10 49 -45 76 -97 76c-53 0 -87 -27 -95 -76z" />
    <glyph glyph-name="edotaccent" unicode="&#x117;" horiz-adv-x="593" 
d="M300 554c-55 0 -97 40 -97 94s42 94 97 94s97 -40 97 -94s-42 -94 -97 -94zM309 -6c-181 0 -285 102 -285 262c0 163 109 266 276 266c159 0 269 -99 269 -249c0 -18 -1 -37 -5 -56h-360v-7c3 -60 43 -91 100 -91c48 0 79 19 89 57h170c-14 -99 -106 -182 -254 -182z
M206 323h192c-10 49 -45 76 -97 76c-53 0 -87 -27 -95 -76z" />
    <glyph glyph-name="egrave" unicode="&#xe8;" horiz-adv-x="593" 
d="M232 564l-131 148h196l63 -148h-128zM309 -6c-181 0 -285 102 -285 262c0 163 109 266 276 266c159 0 269 -99 269 -249c0 -18 -1 -37 -5 -56h-360v-7c3 -60 43 -91 100 -91c48 0 79 19 89 57h170c-14 -99 -106 -182 -254 -182zM206 323h192c-10 49 -45 76 -97 76
c-53 0 -87 -27 -95 -76z" />
    <glyph glyph-name="emacron" unicode="&#x113;" horiz-adv-x="593" 
d="M465 592h-330v120h330v-120zM309 -6c-181 0 -285 102 -285 262c0 163 109 266 276 266c159 0 269 -99 269 -249c0 -18 -1 -37 -5 -56h-360v-7c3 -60 43 -91 100 -91c48 0 79 19 89 57h170c-14 -99 -106 -182 -254 -182zM206 323h192c-10 49 -45 76 -97 76
c-53 0 -87 -27 -95 -76z" />
    <glyph glyph-name="eogonek" unicode="&#x119;" horiz-adv-x="593" 
d="M466 -200h-96c-72 0 -129 39 -129 104c0 38 15 67 36 91c-14 1 -28 3 -41 5c-135 25 -212 119 -212 256c0 163 109 266 276 266c159 0 269 -99 269 -249c0 -18 -1 -37 -5 -56h-360v-5c0 -50 33 -93 100 -93c48 0 79 19 89 57h170c-7 -53 -37 -100 -98 -141
c-49 -33 -89 -67 -89 -98c0 -19 12 -24 36 -24h54v-113zM206 323h192c-10 49 -45 76 -97 76c-53 0 -87 -27 -95 -76z" />
    <glyph glyph-name="f" unicode="f" horiz-adv-x="380" 
d="M0 373v143h81v28c0 97 59 156 167 156h127v-144h-90c-22 0 -35 -11 -35 -34v-6h125v-143h-121v-373h-173v373h-81z" />
    <glyph glyph-name="f.ss05" horiz-adv-x="344" 
d="M45 0v544c0 99 59 156 167 156h127v-144h-90c-22 0 -35 -11 -35 -34v-6h125v-143h-121v-373h-173z" />
    <glyph glyph-name="g" unicode="g" horiz-adv-x="621" 
d="M410 451l13 65h153v-506c0 -117 -78 -216 -287 -216c-150 0 -253 67 -256 190h174c11 -41 41 -65 95 -65c64 0 105 33 105 97v54c-34 -37 -82 -62 -147 -62c-137 -1 -236 103 -236 258c0 157 99 258 234 258c69 0 118 -31 152 -73zM303 142c65 0 102 50 102 122
s-37 123 -102 123c-64 0 -103 -51 -103 -123s39 -122 103 -122z" />
    <glyph glyph-name="gbreve" unicode="&#x11f;" horiz-adv-x="621" 
d="M298 560c-95 0 -158 62 -162 152h119c0 -28 18 -46 46 -46c27 0 45 18 45 46h120c-5 -90 -71 -152 -168 -152zM410 451l13 65h153v-506c0 -117 -78 -216 -287 -216c-150 0 -253 67 -256 190h174c11 -41 41 -65 95 -65c64 0 105 33 105 97v54c-34 -37 -82 -62 -147 -62
c-137 -1 -236 103 -236 258c0 157 99 258 234 258c69 0 118 -31 152 -73zM303 142c65 0 102 50 102 122s-37 123 -102 123c-64 0 -103 -51 -103 -123s39 -122 103 -122z" />
    <glyph glyph-name="gcircumflex" unicode="&#x11d;" horiz-adv-x="621" 
d="M349 567l-48 46l-48 -46h-157l129 145h152l129 -145h-157zM410 451l13 65h153v-506c0 -117 -78 -216 -287 -216c-150 0 -253 67 -256 190h174c11 -41 41 -65 95 -65c64 0 105 33 105 97v54c-34 -37 -82 -62 -147 -62c-137 -1 -236 103 -236 258c0 157 99 258 234 258
c69 0 118 -31 152 -73zM303 142c65 0 102 50 102 122s-37 123 -102 123c-64 0 -103 -51 -103 -123s39 -122 103 -122z" />
    <glyph glyph-name="uni0123" unicode="&#x123;" horiz-adv-x="621" 
d="M302 712h131l-56 -148h-167zM410 451l13 65h153v-506c0 -117 -78 -216 -287 -216c-150 0 -253 67 -256 190h174c11 -41 41 -65 95 -65c64 0 105 33 105 97v54c-34 -37 -82 -62 -147 -62c-137 -1 -236 103 -236 258c0 157 99 258 234 258c69 0 118 -31 152 -73zM303 142
c65 0 102 50 102 122s-37 123 -102 123c-64 0 -103 -51 -103 -123s39 -122 103 -122z" />
    <glyph glyph-name="gdotaccent" unicode="&#x121;" horiz-adv-x="621" 
d="M301 554c-55 0 -97 40 -97 94s42 94 97 94s97 -40 97 -94s-42 -94 -97 -94zM410 451l13 65h153v-506c0 -117 -78 -216 -287 -216c-150 0 -253 67 -256 190h174c11 -41 41 -65 95 -65c64 0 105 33 105 97v54c-34 -37 -82 -62 -147 -62c-137 -1 -236 103 -236 258
c0 157 99 258 234 258c69 0 118 -31 152 -73zM303 142c65 0 102 50 102 122s-37 123 -102 123c-64 0 -103 -51 -103 -123s39 -122 103 -122z" />
    <glyph glyph-name="h" unicode="h" horiz-adv-x="605" 
d="M362 522c113 0 208 -59 208 -236v-286h-173v269c0 73 -24 115 -85 115c-60 0 -94 -42 -94 -115v-269h-173v700h173v-237c33 36 76 59 144 59z" />
    <glyph glyph-name="hbar" unicode="&#x127;" horiz-adv-x="615" 
d="M372 522c113 0 208 -59 208 -236v-286h-173v269c0 73 -24 115 -85 115c-60 0 -94 -42 -94 -115v-269h-173v539h-69v120h69v41h173v-41h132v-120h-132v-76c33 36 76 59 144 59z" />
    <glyph glyph-name="hcircumflex" unicode="&#x125;" horiz-adv-x="605" 
d="M179 746l-48 46l-48 -46h-157l129 145h152l129 -145h-157zM362 522c113 0 208 -59 208 -236v-286h-173v269c0 73 -24 115 -85 115c-60 0 -94 -42 -94 -115v-269h-173v700h173v-237c33 36 76 59 144 59z" />
    <glyph glyph-name="i" unicode="i" horiz-adv-x="264" 
d="M132 554c-55 0 -97 40 -97 94s42 94 97 94s97 -40 97 -94s-42 -94 -97 -94zM45 0v516h174v-516h-174z" />
    <glyph glyph-name="i.ss03" horiz-adv-x="288" 
d="M158 553c-55 0 -97 40 -97 94s42 94 97 94s97 -40 97 -94s-42 -94 -97 -94zM69 0v373h-68v143h242v-516h-174z" />
    <glyph glyph-name="dotlessi" unicode="&#x131;" horiz-adv-x="264" 
d="M45 0v516h174v-516h-174z" />
    <glyph glyph-name="dotlessi.ss03" horiz-adv-x="288" 
d="M69 0v373h-68v143h242v-516h-174z" />
    <glyph glyph-name="iacute" unicode="&#xed;" horiz-adv-x="264" 
d="M197 567h-125l68 145h196zM45 0v516h174v-516h-174z" />
    <glyph glyph-name="iacute.ss03" horiz-adv-x="288" 
d="M223 566h-125l68 145h196zM69 0v373h-68v143h242v-516h-174z" />
    <glyph glyph-name="ibreve" unicode="&#x12d;" horiz-adv-x="264" 
d="M-33 712h119c0 -28 18 -46 46 -46c27 0 45 18 45 46h120c-5 -90 -71 -152 -168 -152c-95 0 -158 62 -162 152zM45 0v516h174v-516h-174z" />
    <glyph glyph-name="ibreve.ss03" horiz-adv-x="288" 
d="M-7 711h119c0 -28 18 -46 46 -46c27 0 45 18 45 46h120c-5 -90 -71 -152 -168 -152c-95 0 -158 62 -162 152zM69 0v373h-68v143h242v-516h-174z" />
    <glyph glyph-name="icircumflex" unicode="&#xee;" horiz-adv-x="264" 
d="M180 567l-48 46l-48 -46h-157l129 145h152l129 -145h-157zM45 0v516h174v-516h-174z" />
    <glyph glyph-name="icircumflex.ss03" horiz-adv-x="288" 
d="M206 566l-48 46l-48 -46h-157l129 145h152l129 -145h-157zM69 0v373h-68v143h242v-516h-174z" />
    <glyph glyph-name="idieresis" unicode="&#xef;" horiz-adv-x="264" 
d="M-67 653c0 49 39 85 88 85c50 0 88 -36 88 -85c0 -48 -38 -84 -88 -84c-49 0 -88 36 -88 84zM156 653c0 49 38 85 87 85c50 0 88 -36 88 -85c0 -48 -38 -84 -88 -84c-49 0 -87 36 -87 84zM45 0v516h174v-516h-174z" />
    <glyph glyph-name="idieresis.ss03" horiz-adv-x="288" 
d="M-41 652c0 49 39 85 88 85c50 0 88 -36 88 -85c0 -48 -38 -84 -88 -84c-49 0 -88 36 -88 84zM182 652c0 49 38 85 87 85c50 0 88 -36 88 -85c0 -48 -38 -84 -88 -84c-49 0 -87 36 -87 84zM69 0v373h-68v143h242v-516h-174z" />
    <glyph glyph-name="i.loclTRK" horiz-adv-x="264" 
d="M132 554c-55 0 -97 40 -97 94s42 94 97 94s97 -40 97 -94s-42 -94 -97 -94zM45 0v516h174v-516h-174z" />
    <glyph glyph-name="i.loclTRK.ss03" horiz-adv-x="288" 
d="M158 553c-55 0 -97 40 -97 94s42 94 97 94s97 -40 97 -94s-42 -94 -97 -94zM69 0v373h-68v143h242v-516h-174z" />
    <glyph glyph-name="igrave" unicode="&#xec;" horiz-adv-x="264" 
d="M64 564l-131 148h196l63 -148h-128zM45 0v516h174v-516h-174z" />
    <glyph glyph-name="igrave.ss03" horiz-adv-x="288" 
d="M90 563l-131 148h196l63 -148h-128zM69 0v373h-68v143h242v-516h-174z" />
    <glyph glyph-name="ij" unicode="&#x133;" horiz-adv-x="532" 
d="M132 554c-55 0 -97 40 -97 94s42 94 97 94s97 -40 97 -94s-42 -94 -97 -94zM401 554c-55 0 -97 40 -97 94s42 94 97 94s97 -40 97 -94s-42 -94 -97 -94zM45 0v516h174v-516h-174zM224 -200v143h42c31 0 48 17 48 58v515h173v-548c0 -97 -57 -168 -157 -168h-106z" />
    <glyph glyph-name="ij.ss03" horiz-adv-x="559" 
d="M132 554c-55 0 -97 40 -97 94s42 94 97 94s97 -40 97 -94s-42 -94 -97 -94zM428 554c-55 0 -97 40 -97 94s42 94 97 94s97 -40 97 -94s-42 -94 -97 -94zM45 0v516h174v-516h-174zM345 -200h-96v143h33c36 0 57 17 57 56v374h-84v143h258v-548c0 -97 -61 -168 -168 -168z
" />
    <glyph glyph-name="ij.ss04" horiz-adv-x="528" 
d="M132 554c-55 0 -97 40 -97 94s42 94 97 94s97 -40 97 -94s-42 -94 -97 -94zM397 554c-55 0 -97 40 -97 94s42 94 97 94s97 -40 97 -94s-42 -94 -97 -94zM45 0v516h174v-516h-174zM309 -200v716h174v-716h-174z" />
    <glyph glyph-name="imacron" unicode="&#x12b;" horiz-adv-x="264" 
d="M297 592h-330v120h330v-120zM45 0v516h174v-516h-174z" />
    <glyph glyph-name="imacron.ss03" horiz-adv-x="288" 
d="M323 591h-330v120h330v-120zM69 0v373h-68v143h242v-516h-174z" />
    <glyph glyph-name="iogonek" unicode="&#x12f;" horiz-adv-x="264" 
d="M132 554c-55 0 -97 40 -97 94s42 94 97 94s97 -40 97 -94s-42 -94 -97 -94zM45 4v512h174v-516c-61 -24 -90 -45 -90 -68c0 -13 9 -19 26 -19h64v-113h-96c-72 0 -129 39 -129 104c0 43 21 74 51 100z" />
    <glyph glyph-name="iogonek.ss03" horiz-adv-x="288" 
d="M158 553c-55 0 -97 40 -97 94s42 94 97 94s97 -40 97 -94s-42 -94 -97 -94zM69 373h-68v143h242v-516c-61 -24 -90 -45 -90 -68c0 -13 9 -19 26 -19h64v-113h-96c-72 0 -129 39 -129 104c0 43 21 74 51 100v369z" />
    <glyph glyph-name="itilde" unicode="&#x129;" horiz-adv-x="264" 
d="M98 610c-19 0 -32 -15 -32 -34h-99v25c0 66 43 115 101 115c53 0 62 -38 99 -38c18 0 32 15 32 34h98v-25c0 -66 -43 -115 -100 -115c-54 0 -68 38 -99 38zM45 0v516h174v-516h-174z" />
    <glyph glyph-name="itilde.ss03" horiz-adv-x="288" 
d="M124 609c-19 0 -32 -15 -32 -34h-99v25c0 66 43 115 101 115c53 0 62 -38 99 -38c18 0 32 15 32 34h98v-25c0 -66 -43 -115 -100 -115c-54 0 -68 38 -99 38zM69 0v373h-68v143h242v-516h-174z" />
    <glyph glyph-name="j" unicode="j" horiz-adv-x="268" 
d="M137 554c-55 0 -97 40 -97 94s42 94 97 94s97 -40 97 -94s-42 -94 -97 -94zM-40 -200v143h42c31 0 48 17 48 58v515h173v-548c0 -97 -57 -168 -157 -168h-106z" />
    <glyph glyph-name="j.short" horiz-adv-x="268" 
d="M133 554c-55 0 -97 40 -97 94s42 94 97 94s97 -40 97 -94s-42 -94 -97 -94zM-13 -200v143h15c31 0 48 17 48 58v515h173v-548c0 -97 -57 -168 -157 -168h-79z" />
    <glyph glyph-name="j.ss03" horiz-adv-x="294" 
d="M164 554c-55 0 -97 40 -97 94s42 94 97 94s97 -40 97 -94s-42 -94 -97 -94zM81 -200h-96v143h33c36 0 57 17 57 56v374h-84v143h258v-548c0 -97 -61 -168 -168 -168z" />
    <glyph glyph-name="j.ss04" horiz-adv-x="264" 
d="M133 554c-55 0 -97 40 -97 94s42 94 97 94s97 -40 97 -94s-42 -94 -97 -94zM45 -200v716h174v-716h-174z" />
    <glyph glyph-name="uni0237" unicode="&#x237;" horiz-adv-x="268" 
d="M-40 -200v143h42c31 0 48 17 48 58v515h173v-548c0 -97 -57 -168 -157 -168h-106z" />
    <glyph glyph-name="uni0237.short" horiz-adv-x="268" 
d="M-13 -200v143h15c31 0 48 17 48 58v515h173v-548c0 -97 -57 -168 -157 -168h-79z" />
    <glyph glyph-name="uni0237.ss03" horiz-adv-x="294" 
d="M81 -200h-96v143h33c36 0 57 17 57 56v374h-84v143h258v-548c0 -97 -61 -168 -168 -168z" />
    <glyph glyph-name="uni0237.ss04" horiz-adv-x="264" 
d="M45 -200v716h174v-716h-174z" />
    <glyph glyph-name="jcircumflex" unicode="&#x135;" horiz-adv-x="268" 
d="M185 567l-48 46l-48 -46h-157l129 145h152l129 -145h-157zM-40 -200v143h42c31 0 48 17 48 58v515h173v-548c0 -97 -57 -168 -157 -168h-106z" />
    <glyph glyph-name="jcircumflex.short" horiz-adv-x="268" 
d="M181 567l-48 46l-48 -46h-157l129 145h152l129 -145h-157zM-13 -200v143h15c31 0 48 17 48 58v515h173v-548c0 -97 -57 -168 -157 -168h-79z" />
    <glyph glyph-name="jcircumflex.ss03" horiz-adv-x="294" 
d="M212 567l-48 46l-48 -46h-157l129 145h152l129 -145h-157zM81 -200h-96v143h33c36 0 57 17 57 56v374h-84v143h258v-548c0 -97 -61 -168 -168 -168z" />
    <glyph glyph-name="jcircumflex.ss04" horiz-adv-x="264" 
d="M181 567l-48 46l-48 -46h-157l129 145h152l129 -145h-157zM45 -200v716h174v-716h-174z" />
    <glyph glyph-name="k" unicode="k" horiz-adv-x="581" 
d="M45 0v700h173v-373l172 189h190l-177 -197l184 -319h-197l-109 190l-63 -70v-120h-173z" />
    <glyph glyph-name="uni0137" unicode="&#x137;" horiz-adv-x="581" 
d="M45 0v700h173v-373l172 189h190l-177 -197l184 -319h-197l-109 190l-63 -70v-120h-173zM163 -195l56 148h167l-92 -148h-131z" />
    <glyph glyph-name="kgreenlandic" unicode="&#x138;" horiz-adv-x="581" 
d="M45 0v516h173v-189l172 189h190l-177 -197l184 -319h-197l-109 190l-63 -70v-120h-173z" />
    <glyph glyph-name="l" unicode="l" horiz-adv-x="263" 
d="M45 0v700h173v-700h-173z" />
    <glyph glyph-name="lacute" unicode="&#x13a;" horiz-adv-x="263" 
d="M196 746h-125l68 145h196zM45 0v700h173v-700h-173z" />
    <glyph glyph-name="lcaron" unicode="&#x13e;" horiz-adv-x="333" 
d="M45 0v700h173v-700h-173zM247 551l33 149h161l-73 -149h-121z" />
    <glyph glyph-name="uni013C" unicode="&#x13c;" horiz-adv-x="263" 
d="M45 0v700h173v-700h-173zM-13 -195l56 148h167l-92 -148h-131z" />
    <glyph glyph-name="ldot" unicode="&#x140;" horiz-adv-x="426" 
d="M45 0v700h173v-700h-173zM346 226c-55 0 -97 40 -97 94s42 94 97 94s97 -40 97 -94s-42 -94 -97 -94z" />
    <glyph glyph-name="lslash" unicode="&#x142;" horiz-adv-x="323" 
d="M248 479l65 27v-146l-65 -27v-333h-173v259l-65 -27v146l65 27v295h173v-221z" />
    <glyph glyph-name="m" unicode="m" horiz-adv-x="909" 
d="M685 522c106 0 189 -60 189 -226v-296h-173v286c0 64 -20 98 -72 98c-48 0 -83 -34 -83 -98v-286h-173v286c0 64 -19 98 -72 98c-49 0 -83 -34 -83 -98v-286h-173v516h152l13 -61c34 40 79 66 152 67c60 1 118 -18 152 -82c37 54 99 82 171 82z" />
    <glyph glyph-name="n" unicode="n" horiz-adv-x="605" 
d="M364 522c110 0 206 -57 206 -236v-286h-173v267c0 76 -24 117 -85 117c-60 0 -94 -41 -94 -117v-267h-173v516h152l13 -62c34 41 79 68 154 68z" />
    <glyph glyph-name="nacute" unicode="&#x144;" horiz-adv-x="605" 
d="M342 712h196l-139 -145h-125zM364 522c110 0 206 -57 206 -236v-286h-173v267c0 76 -24 117 -85 117c-60 0 -94 -41 -94 -117v-267h-173v516h152l13 -62c34 41 79 68 154 68z" />
    <glyph glyph-name="napostrophe" unicode="&#x149;" horiz-adv-x="843" 
d="M126 706c70 0 118 -58 118 -147c0 -127 -84 -190 -211 -190v87c63 0 100 24 100 61c0 4 0 10 -1 15c-11 -4 -19 -6 -31 -6c-40 0 -75 29 -75 87c0 51 46 93 100 93zM602 522c110 0 206 -57 206 -236v-286h-173v267c0 76 -24 117 -85 117c-60 0 -94 -41 -94 -117v-267
h-173v516h152l13 -62c34 41 79 68 154 68z" />
    <glyph glyph-name="ncaron" unicode="&#x148;" horiz-adv-x="605" 
d="M539 712l-129 -145h-152l-129 145h157l48 -46l48 46h157zM364 522c110 0 206 -57 206 -236v-286h-173v267c0 76 -24 117 -85 117c-60 0 -94 -41 -94 -117v-267h-173v516h152l13 -62c34 41 79 68 154 68z" />
    <glyph glyph-name="uni0146" unicode="&#x146;" horiz-adv-x="605" 
d="M364 522c110 0 206 -57 206 -236v-286h-173v267c0 76 -24 117 -85 117c-60 0 -94 -41 -94 -117v-267h-173v516h152l13 -62c34 41 79 68 154 68zM296 -195h-131l56 148h167z" />
    <glyph glyph-name="eng" unicode="&#x14b;" horiz-adv-x="605" 
d="M364 522c110 0 206 -57 206 -236v-308c0 -103 -61 -178 -167 -178h-96v143h39c33 0 51 18 51 61v263c0 76 -24 117 -85 117c-60 0 -94 -41 -94 -117v-267h-173v516h152l13 -62c34 41 79 68 154 68z" />
    <glyph glyph-name="ntilde" unicode="&#xf1;" horiz-adv-x="605" 
d="M300 610c-19 0 -32 -15 -32 -34h-99v25c0 66 43 115 101 115c53 0 62 -38 99 -38c18 0 32 15 32 34h98v-25c0 -66 -43 -115 -100 -115c-54 0 -68 38 -99 38zM364 522c110 0 206 -57 206 -236v-286h-173v267c0 76 -24 117 -85 117c-60 0 -94 -41 -94 -117v-267h-173v516
h152l13 -62c34 41 79 68 154 68z" />
    <glyph glyph-name="o" unicode="o" horiz-adv-x="610" 
d="M305 -6c-172 0 -281 104 -281 264s109 264 281 264s281 -104 281 -264s-109 -264 -281 -264zM305 132c67 0 105 51 105 126s-38 126 -105 126s-105 -51 -105 -126s38 -126 105 -126z" />
    <glyph glyph-name="oacute" unicode="&#xf3;" horiz-adv-x="610" 
d="M370 567h-125l68 145h196zM305 -6c-172 0 -281 104 -281 264s109 264 281 264s281 -104 281 -264s-109 -264 -281 -264zM305 132c67 0 105 51 105 126s-38 126 -105 126s-105 -51 -105 -126s38 -126 105 -126z" />
    <glyph glyph-name="obreve" unicode="&#x14f;" horiz-adv-x="610" 
d="M140 712h119c0 -28 18 -46 46 -46c27 0 45 18 45 46h120c-5 -90 -71 -152 -168 -152c-95 0 -158 62 -162 152zM305 -6c-172 0 -281 104 -281 264s109 264 281 264s281 -104 281 -264s-109 -264 -281 -264zM305 132c67 0 105 51 105 126s-38 126 -105 126
s-105 -51 -105 -126s38 -126 105 -126z" />
    <glyph glyph-name="ocircumflex" unicode="&#xf4;" horiz-adv-x="610" 
d="M353 567l-48 46l-48 -46h-157l129 145h152l129 -145h-157zM305 -6c-172 0 -281 104 -281 264s109 264 281 264s281 -104 281 -264s-109 -264 -281 -264zM305 132c67 0 105 51 105 126s-38 126 -105 126s-105 -51 -105 -126s38 -126 105 -126z" />
    <glyph glyph-name="odieresis" unicode="&#xf6;" horiz-adv-x="610" 
d="M106 653c0 49 39 85 88 85c50 0 88 -36 88 -85c0 -48 -38 -84 -88 -84c-49 0 -88 36 -88 84zM329 653c0 49 38 85 87 85c50 0 88 -36 88 -85c0 -48 -38 -84 -88 -84c-49 0 -87 36 -87 84zM305 -6c-172 0 -281 104 -281 264s109 264 281 264s281 -104 281 -264
s-109 -264 -281 -264zM305 132c67 0 105 51 105 126s-38 126 -105 126s-105 -51 -105 -126s38 -126 105 -126z" />
    <glyph glyph-name="ograve" unicode="&#xf2;" horiz-adv-x="610" 
d="M237 564l-131 148h196l63 -148h-128zM305 -6c-172 0 -281 104 -281 264s109 264 281 264s281 -104 281 -264s-109 -264 -281 -264zM305 132c67 0 105 51 105 126s-38 126 -105 126s-105 -51 -105 -126s38 -126 105 -126z" />
    <glyph glyph-name="ohungarumlaut" unicode="&#x151;" horiz-adv-x="610" 
d="M242 564h-115l68 148h186zM454 564h-115l68 148h186zM305 -6c-172 0 -281 104 -281 264s109 264 281 264s281 -104 281 -264s-109 -264 -281 -264zM305 132c67 0 105 51 105 126s-38 126 -105 126s-105 -51 -105 -126s38 -126 105 -126z" />
    <glyph glyph-name="omacron" unicode="&#x14d;" horiz-adv-x="610" 
d="M470 592h-330v120h330v-120zM305 -6c-172 0 -281 104 -281 264s109 264 281 264s281 -104 281 -264s-109 -264 -281 -264zM305 132c67 0 105 51 105 126s-38 126 -105 126s-105 -51 -105 -126s38 -126 105 -126z" />
    <glyph glyph-name="oslash" unicode="&#xf8;" horiz-adv-x="609" 
d="M583 445l-39 -37c27 -41 41 -92 41 -151c0 -159 -108 -263 -282 -263c-63 0 -116 14 -159 39l-42 -39l-76 77l39 37c-26 41 -40 91 -41 149c-2 161 107 265 279 265c64 0 119 -14 163 -40l42 40zM192 257c0 -10 1 -20 2 -29l161 151c-15 7 -32 11 -52 11
c-72 0 -111 -55 -111 -133zM303 126c72 0 114 53 114 131c0 11 -1 21 -2 30l-161 -151c14 -6 30 -10 49 -10z" />
    <glyph glyph-name="otilde" unicode="&#xf5;" horiz-adv-x="610" 
d="M271 610c-19 0 -32 -15 -32 -34h-99v25c0 66 43 115 101 115c53 0 62 -38 99 -38c18 0 32 15 32 34h98v-25c0 -66 -43 -115 -100 -115c-54 0 -68 38 -99 38zM305 -6c-172 0 -281 104 -281 264s109 264 281 264s281 -104 281 -264s-109 -264 -281 -264zM305 132
c67 0 105 51 105 126s-38 126 -105 126s-105 -51 -105 -126s38 -126 105 -126z" />
    <glyph glyph-name="oe" unicode="&#x153;" horiz-adv-x="962" 
d="M933 217h-360v-2c8 -60 38 -96 100 -96c48 0 79 19 89 57h170c-14 -99 -103 -182 -247 -182c-84 0 -151 24 -198 66c-45 -43 -107 -66 -184 -66c-172 0 -279 103 -279 263c0 162 107 265 279 265c78 0 142 -24 187 -65c43 42 101 65 171 65c165 0 277 -99 277 -249
c0 -18 -1 -37 -5 -56zM670 399c-53 0 -87 -27 -95 -76h192c-10 49 -45 76 -97 76zM303 132c67 0 106 50 106 125s-39 127 -106 127s-103 -52 -103 -127s36 -125 103 -125z" />
    <glyph glyph-name="p" unicode="p" horiz-adv-x="621" 
d="M361 522c137 1 236 -105 236 -265c0 -162 -99 -263 -234 -263c-65 0 -112 26 -145 65v-259h-173v716h152l14 -65c33 42 82 71 150 71zM318 131c64 0 103 53 103 128s-39 126 -103 126c-65 0 -102 -51 -102 -126s37 -128 102 -128z" />
    <glyph glyph-name="thorn" unicode="&#xfe;" horiz-adv-x="621" 
d="M45 -200v900h165v-251c33 43 82 73 151 73c137 1 236 -105 236 -265c0 -162 -99 -263 -234 -263c-65 0 -112 26 -145 65v-259h-173zM421 259c0 75 -39 126 -103 126c-65 0 -102 -51 -102 -126s37 -128 102 -128c64 0 103 53 103 128z" />
    <glyph glyph-name="q" unicode="q" horiz-adv-x="621" 
d="M410 451l14 65h152v-716h-173v259c-33 -39 -80 -65 -145 -65c-135 0 -234 101 -234 263c0 160 99 266 236 265c68 0 117 -29 150 -71zM303 131c65 0 102 53 102 128s-37 126 -102 126c-64 0 -103 -51 -103 -126s39 -128 103 -128z" />
    <glyph glyph-name="r" unicode="r" horiz-adv-x="401" 
d="M363 516h25v-153h-65c-71 0 -105 -39 -105 -115v-248h-173v516h159l14 -76c29 48 70 76 145 76z" />
    <glyph glyph-name="racute" unicode="&#x155;" horiz-adv-x="401" 
d="M234 712h196l-139 -145h-125zM204 516l14 -76c29 48 70 76 145 76h25v-153h-65c-71 0 -105 -39 -105 -115v-248h-173v516h159z" />
    <glyph glyph-name="rcaron" unicode="&#x159;" horiz-adv-x="401" 
d="M431 712l-129 -145h-152l-129 145h157l48 -46l48 46h157zM204 516l14 -76c29 48 70 76 145 76h25v-153h-65c-71 0 -105 -39 -105 -115v-248h-173v516h159z" />
    <glyph glyph-name="uni0157" unicode="&#x157;" horiz-adv-x="401" 
d="M363 516h25v-153h-65c-71 0 -105 -39 -105 -115v-248h-173v516h159l14 -76c29 48 70 76 145 76zM119 -195h-131l56 148h167z" />
    <glyph glyph-name="s" unicode="s" horiz-adv-x="547" 
d="M20 173h161c6 -37 37 -62 98 -62c52 0 80 14 80 43c0 30 -25 33 -111 44c-124 15 -218 44 -218 150c0 107 91 176 233 176c150 0 251 -65 257 -169h-162c-4 35 -37 52 -88 52c-46 0 -75 -14 -75 -40c0 -30 38 -32 113 -40c118 -12 219 -41 219 -159
c0 -106 -98 -174 -250 -174c-149 0 -250 69 -257 179z" />
    <glyph glyph-name="sacute" unicode="&#x15b;" horiz-adv-x="547" 
d="M328 567h-125l68 145h196zM20 173h161c6 -37 37 -62 98 -62c52 0 80 14 80 43c0 30 -25 33 -111 44c-124 15 -218 44 -218 150c0 107 91 176 233 176c150 0 251 -65 257 -169h-162c-4 35 -37 52 -88 52c-46 0 -75 -14 -75 -40c0 -30 38 -32 113 -40
c118 -12 219 -41 219 -159c0 -106 -98 -174 -250 -174c-149 0 -250 69 -257 179z" />
    <glyph glyph-name="scaron" unicode="&#x161;" horiz-adv-x="547" 
d="M215 712l48 -46l48 46h157l-129 -145h-152l-129 145h157zM20 173h161c6 -37 37 -62 98 -62c52 0 80 14 80 43c0 30 -25 33 -111 44c-124 15 -218 44 -218 150c0 107 91 176 233 176c150 0 251 -65 257 -169h-162c-4 35 -37 52 -88 52c-46 0 -75 -14 -75 -40
c0 -30 38 -32 113 -40c118 -12 219 -41 219 -159c0 -106 -98 -174 -250 -174c-149 0 -250 69 -257 179z" />
    <glyph glyph-name="scedilla" unicode="&#x15f;" horiz-adv-x="547" 
d="M527 168c0 -96 -80 -161 -208 -172l-6 -21h13c62 0 100 -29 100 -78c0 -60 -46 -98 -118 -98h-136v79h100c14 0 23 8 23 22c0 12 -9 19 -23 19h-63l19 78c-122 13 -202 78 -208 176h161c6 -37 37 -62 98 -62c52 0 80 14 80 43c0 30 -25 33 -111 44
c-124 15 -218 44 -218 150c0 107 91 176 233 176c150 0 251 -65 257 -169h-162c-4 35 -37 52 -88 52c-46 0 -75 -14 -75 -40c0 -30 38 -32 113 -40c118 -12 219 -41 219 -159z" />
    <glyph glyph-name="scircumflex" unicode="&#x15d;" horiz-adv-x="547" 
d="M311 567l-48 46l-48 -46h-157l129 145h152l129 -145h-157zM20 173h161c6 -37 37 -62 98 -62c52 0 80 14 80 43c0 30 -25 33 -111 44c-124 15 -218 44 -218 150c0 107 91 176 233 176c150 0 251 -65 257 -169h-162c-4 35 -37 52 -88 52c-46 0 -75 -14 -75 -40
c0 -30 38 -32 113 -40c118 -12 219 -41 219 -159c0 -106 -98 -174 -250 -174c-149 0 -250 69 -257 179z" />
    <glyph glyph-name="uni0219" unicode="&#x219;" horiz-adv-x="547" 
d="M20 173h161c6 -37 37 -62 98 -62c52 0 80 14 80 43c0 30 -25 33 -111 44c-124 15 -218 44 -218 150c0 107 91 176 233 176c150 0 251 -65 257 -169h-162c-4 35 -37 52 -88 52c-46 0 -75 -14 -75 -40c0 -30 38 -32 113 -40c118 -12 219 -41 219 -159
c0 -106 -98 -174 -250 -174c-149 0 -250 69 -257 179zM133 -196l56 148h167l-92 -148h-131z" />
    <glyph glyph-name="germandbls" unicode="&#xdf;" horiz-adv-x="642" 
d="M381 -6c-42 1 -76 6 -108 16v122c33 -11 54 -13 77 -13c54 0 97 29 97 84c0 54 -44 85 -111 85c-11 0 -22 -1 -33 -2v122c75 0 98 43 98 84c0 48 -29 80 -85 80c-55 0 -87 -36 -87 -85v-487h-174v478c0 164 123 228 263 228c154 0 257 -74 257 -192
c0 -68 -35 -121 -85 -147c79 -24 131 -76 131 -166c0 -135 -108 -206 -240 -207z" />
    <glyph glyph-name="t" unicode="t" horiz-adv-x="382" 
d="M81 155v218h-81v143h81v145h173v-145h111v-143h-111v-183c0 -33 14 -47 47 -47h64v-143h-129c-98 0 -155 52 -155 155z" />
    <glyph glyph-name="t.ss05" horiz-adv-x="338" 
d="M37 155v506h173v-145h111v-143h-111v-183c0 -33 14 -47 47 -47h64v-143h-129c-98 0 -155 52 -155 155z" />
    <glyph glyph-name="t.ss06" horiz-adv-x="367" 
d="M0 373v143h81v145h173v-145h103v-143h-103v-373h-173v373h-81z" />
    <glyph glyph-name="tbar" unicode="&#x167;" horiz-adv-x="395" 
d="M370 516v-143h-111v-46h111v-120h-111v-17c0 -33 14 -47 47 -47h64v-143h-129c-98 0 -155 52 -155 155v52h-81v120h81v46h-81v143h81v145h173v-145h111z" />
    <glyph glyph-name="tbar.ss05" horiz-adv-x="338" 
d="M321 516v-143h-111v-46h111v-120h-111v-17c0 -33 14 -47 47 -47h64v-143h-129c-98 0 -155 52 -155 155v506h173v-145h111z" />
    <glyph glyph-name="tbar.ss06" horiz-adv-x="389" 
d="M369 516v-143h-106v-58h106v-120h-106v-195h-174v195h-84v120h84v58h-84v143h84v145h174v-145h106z" />
    <glyph glyph-name="tcaron" unicode="&#x165;" horiz-adv-x="382" 
d="M283 551l33 149h161l-73 -149h-121zM81 155v218h-81v143h81v145h173v-145h111v-143h-111v-183c0 -33 14 -47 47 -47h64v-143h-129c-98 0 -155 52 -155 155z" />
    <glyph glyph-name="tcaron.ss05" horiz-adv-x="338" 
d="M239 551l33 149h161l-73 -149h-121zM37 155v506h173v-145h111v-143h-111v-183c0 -33 14 -47 47 -47h64v-143h-129c-98 0 -155 52 -155 155z" />
    <glyph glyph-name="tcaron.ss06" horiz-adv-x="367" 
d="M287 551l33 149h161l-73 -149h-121zM0 373v143h81v145h173v-145h103v-143h-103v-373h-173v373h-81z" />
    <glyph glyph-name="uni0163" unicode="&#x163;" horiz-adv-x="382" 
d="M265 -24h13c62 0 100 -29 100 -78c0 -60 -46 -98 -118 -98h-136v79h100c14 0 23 8 23 22c0 12 -9 19 -23 19h-63l22 86c-65 17 -102 66 -102 149v218h-81v143h81v145h173v-145h111v-143h-111v-183c0 -33 14 -47 47 -47h64v-143h-94z" />
    <glyph glyph-name="uni0163.ss05" horiz-adv-x="338" 
d="M221 -24h13c62 0 100 -29 100 -78c0 -60 -46 -98 -118 -98h-136v79h100c14 0 23 8 23 22c0 12 -9 19 -23 19h-63l22 86c-65 17 -102 66 -102 149v506h173v-145h111v-143h-111v-183c0 -33 14 -47 47 -47h64v-143h-94z" />
    <glyph glyph-name="uni0163.ss06" horiz-adv-x="367" 
d="M254 373v-373h-41l-6 -24h13c62 0 100 -29 100 -78c0 -60 -46 -98 -118 -98h-136v79h100c14 0 23 8 23 22c0 12 -9 19 -23 19h-63l20 80h-42v373h-81v143h81v145h173v-145h103v-143h-103z" />
    <glyph glyph-name="uni021B" unicode="&#x21b;" horiz-adv-x="382" 
d="M81 155v218h-81v143h81v145h173v-145h111v-143h-111v-183c0 -33 14 -47 47 -47h64v-143h-129c-98 0 -155 52 -155 155zM85 -195l56 148h167l-92 -148h-131z" />
    <glyph glyph-name="uni021B.ss05" horiz-adv-x="338" 
d="M37 155v506h173v-145h111v-143h-111v-183c0 -33 14 -47 47 -47h64v-143h-129c-98 0 -155 52 -155 155zM41 -195l56 148h167l-92 -148h-131z" />
    <glyph glyph-name="uni021B.ss06" horiz-adv-x="367" 
d="M0 373v143h81v145h173v-145h103v-143h-103v-373h-173v373h-81zM27 -195l56 148h167l-92 -148h-131z" />
    <glyph glyph-name="u" unicode="u" horiz-adv-x="599" 
d="M381 258v258h173v-516h-154l-13 59c-34 -39 -77 -65 -147 -65c-102 0 -205 47 -205 236v286h173v-259c0 -84 21 -123 82 -123c57 0 91 40 91 124z" />
    <glyph glyph-name="uacute" unicode="&#xfa;" horiz-adv-x="599" 
d="M303 712h196l-139 -145h-125zM381 258v258h173v-516h-154l-13 59c-34 -39 -77 -65 -147 -65c-102 0 -205 47 -205 236v286h173v-259c0 -84 21 -123 82 -123c57 0 91 40 91 124z" />
    <glyph glyph-name="ubreve" unicode="&#x16d;" horiz-adv-x="599" 
d="M292 560c-95 0 -158 62 -162 152h119c0 -28 18 -46 46 -46c27 0 45 18 45 46h120c-5 -90 -71 -152 -168 -152zM381 258v258h173v-516h-154l-13 59c-34 -39 -77 -65 -147 -65c-102 0 -205 47 -205 236v286h173v-259c0 -84 21 -123 82 -123c57 0 91 40 91 124z" />
    <glyph glyph-name="ucircumflex" unicode="&#xfb;" horiz-adv-x="599" 
d="M343 567l-48 46l-48 -46h-157l129 145h152l129 -145h-157zM381 258v258h173v-516h-154l-13 59c-34 -39 -77 -65 -147 -65c-102 0 -205 47 -205 236v286h173v-259c0 -84 21 -123 82 -123c57 0 91 40 91 124z" />
    <glyph glyph-name="udieresis" unicode="&#xfc;" horiz-adv-x="599" 
d="M184 569c-49 0 -88 36 -88 84c0 49 39 85 88 85c50 0 88 -36 88 -85c0 -48 -38 -84 -88 -84zM406 569c-49 0 -87 36 -87 84c0 49 38 85 87 85c50 0 88 -36 88 -85c0 -48 -38 -84 -88 -84zM381 258v258h173v-516h-154l-13 59c-34 -39 -77 -65 -147 -65
c-102 0 -205 47 -205 236v286h173v-259c0 -84 21 -123 82 -123c57 0 91 40 91 124z" />
    <glyph glyph-name="ugrave" unicode="&#xf9;" horiz-adv-x="599" 
d="M292 712l63 -148h-128l-131 148h196zM381 258v258h173v-516h-154l-13 59c-34 -39 -77 -65 -147 -65c-102 0 -205 47 -205 236v286h173v-259c0 -84 21 -123 82 -123c57 0 91 40 91 124z" />
    <glyph glyph-name="uhungarumlaut" unicode="&#x171;" horiz-adv-x="599" 
d="M185 712h186l-139 -148h-115zM583 712l-139 -148h-115l68 148h186zM381 258v258h173v-516h-154l-13 59c-34 -39 -77 -65 -147 -65c-102 0 -205 47 -205 236v286h173v-259c0 -84 21 -123 82 -123c57 0 91 40 91 124z" />
    <glyph glyph-name="umacron" unicode="&#x16b;" horiz-adv-x="599" 
d="M130 712h330v-120h-330v120zM381 258v258h173v-516h-154l-13 59c-34 -39 -77 -65 -147 -65c-102 0 -205 47 -205 236v286h173v-259c0 -84 21 -123 82 -123c57 0 91 40 91 124z" />
    <glyph glyph-name="uogonek" unicode="&#x173;" horiz-adv-x="599" 
d="M554 516v-516c-61 -24 -90 -45 -90 -68c0 -13 9 -19 26 -19h64v-113h-96c-72 0 -129 39 -129 104c0 50 28 85 67 112l-9 43c-34 -39 -77 -65 -147 -65c-102 0 -205 47 -205 236v286h173v-259c0 -84 21 -123 82 -123c57 0 91 40 91 124v258h173z" />
    <glyph glyph-name="uring" unicode="&#x16f;" horiz-adv-x="599" 
d="M295 550c-77 0 -138 56 -138 127c0 70 61 126 138 126s138 -56 138 -126c0 -71 -61 -127 -138 -127zM295 732c-31 0 -56 -24 -56 -55c0 -32 25 -56 56 -56s56 24 56 56c0 31 -25 55 -56 55zM381 258v258h173v-516h-154l-13 59c-34 -39 -77 -65 -147 -65
c-102 0 -205 47 -205 236v286h173v-259c0 -84 21 -123 82 -123c57 0 91 40 91 124z" />
    <glyph glyph-name="utilde" unicode="&#x169;" horiz-adv-x="599" 
d="M261 610c-19 0 -32 -15 -32 -34h-99v25c0 66 43 115 101 115c53 0 62 -38 99 -38c18 0 32 15 32 34h98v-25c0 -66 -43 -115 -100 -115c-54 0 -68 38 -99 38zM381 258v258h173v-516h-154l-13 59c-34 -39 -77 -65 -147 -65c-102 0 -205 47 -205 236v286h173v-259
c0 -84 21 -123 82 -123c57 0 91 40 91 124z" />
    <glyph glyph-name="v" unicode="v" horiz-adv-x="570" 
d="M178 0l-183 516h185l108 -345l106 345h181l-182 -516h-215z" />
    <glyph glyph-name="w" unicode="w" horiz-adv-x="839" 
d="M165 0l-170 516h183l91 -334l77 334h154l76 -335l91 335h177l-169 -516h-182l-72 273l-73 -273h-183z" />
    <glyph glyph-name="wacute" unicode="&#x1e83;" horiz-adv-x="839" 
d="M487 567h-125l68 145h196zM165 0l-170 516h183l91 -334l77 334h154l76 -335l91 335h177l-169 -516h-182l-72 273l-73 -273h-183z" />
    <glyph glyph-name="wcircumflex" unicode="&#x175;" horiz-adv-x="839" 
d="M470 567l-48 46l-48 -46h-157l129 145h152l129 -145h-157zM165 0l-170 516h183l91 -334l77 334h154l76 -335l91 335h177l-169 -516h-182l-72 273l-73 -273h-183z" />
    <glyph glyph-name="wdieresis" unicode="&#x1e85;" horiz-adv-x="839" 
d="M223 653c0 49 39 85 88 85c50 0 88 -36 88 -85c0 -48 -38 -84 -88 -84c-49 0 -88 36 -88 84zM446 653c0 49 38 85 87 85c50 0 88 -36 88 -85c0 -48 -38 -84 -88 -84c-49 0 -87 36 -87 84zM165 0l-170 516h183l91 -334l77 334h154l76 -335l91 335h177l-169 -516h-182
l-72 273l-73 -273h-183z" />
    <glyph glyph-name="wgrave" unicode="&#x1e81;" horiz-adv-x="839" 
d="M354 564l-131 148h196l63 -148h-128zM165 0l-170 516h183l91 -334l77 334h154l76 -335l91 335h177l-169 -516h-182l-72 273l-73 -273h-183z" />
    <glyph glyph-name="x" unicode="x" horiz-adv-x="566" 
d="M-6 0l189 262l-182 254h195l91 -132l94 132h183l-180 -254l188 -262h-195l-100 138l-100 -138h-183z" />
    <glyph glyph-name="y" unicode="y" horiz-adv-x="574" 
d="M193 -3l-198 519h184l108 -343l107 343h185l-224 -582c-33 -86 -62 -134 -147 -134h-158v143h81c31 0 45 7 55 35z" />
    <glyph glyph-name="y.ss01" horiz-adv-x="599" 
d="M381 267v249h173v-506c0 -117 -74 -216 -273 -216c-144 0 -243 62 -246 185h174c11 -41 36 -60 87 -60c54 0 90 32 90 91v61c-35 -42 -75 -70 -146 -70c-102 0 -205 45 -205 242v273h173v-249c0 -84 21 -124 82 -124c57 0 91 40 91 124z" />
    <glyph glyph-name="yacute" unicode="&#xfd;" horiz-adv-x="574" 
d="M350 567h-125l68 145h196zM193 -3l-198 519h184l108 -343l107 343h185l-224 -582c-33 -86 -62 -134 -147 -134h-158v143h81c31 0 45 7 55 35z" />
    <glyph glyph-name="yacute.ss01" horiz-adv-x="599" 
d="M303 712h196l-139 -145h-125zM381 267v249h173v-506c0 -117 -74 -216 -273 -216c-144 0 -243 62 -246 185h174c11 -41 36 -60 87 -60c54 0 90 32 90 91v61c-35 -42 -75 -70 -146 -70c-102 0 -205 45 -205 242v273h173v-249c0 -84 21 -124 82 -124c57 0 91 40 91 124z" />
    <glyph glyph-name="ycircumflex" unicode="&#x177;" horiz-adv-x="574" 
d="M333 567l-48 46l-48 -46h-157l129 145h152l129 -145h-157zM193 -3l-198 519h184l108 -343l107 343h185l-224 -582c-33 -86 -62 -134 -147 -134h-158v143h81c31 0 45 7 55 35z" />
    <glyph glyph-name="ycircumflex.ss01" horiz-adv-x="599" 
d="M343 567l-48 46l-48 -46h-157l129 145h152l129 -145h-157zM381 267v249h173v-506c0 -117 -74 -216 -273 -216c-144 0 -243 62 -246 185h174c11 -41 36 -60 87 -60c54 0 90 32 90 91v61c-35 -42 -75 -70 -146 -70c-102 0 -205 45 -205 242v273h173v-249
c0 -84 21 -124 82 -124c57 0 91 40 91 124z" />
    <glyph glyph-name="ydieresis" unicode="&#xff;" horiz-adv-x="574" 
d="M86 653c0 49 39 85 88 85c50 0 88 -36 88 -85c0 -48 -38 -84 -88 -84c-49 0 -88 36 -88 84zM309 653c0 49 38 85 87 85c50 0 88 -36 88 -85c0 -48 -38 -84 -88 -84c-49 0 -87 36 -87 84zM193 -3l-198 519h184l108 -343l107 343h185l-224 -582c-33 -86 -62 -134 -147 -134
h-158v143h81c31 0 45 7 55 35z" />
    <glyph glyph-name="ydieresis.ss01" horiz-adv-x="599" 
d="M184 569c-49 0 -88 36 -88 84c0 49 39 85 88 85c50 0 88 -36 88 -85c0 -48 -38 -84 -88 -84zM406 569c-49 0 -87 36 -87 84c0 49 38 85 87 85c50 0 88 -36 88 -85c0 -48 -38 -84 -88 -84zM381 267v249h173v-506c0 -117 -74 -216 -273 -216c-144 0 -243 62 -246 185h174
c11 -41 36 -60 87 -60c54 0 90 32 90 91v61c-35 -42 -75 -70 -146 -70c-102 0 -205 45 -205 242v273h173v-249c0 -84 21 -124 82 -124c57 0 91 40 91 124z" />
    <glyph glyph-name="ygrave" unicode="&#x1ef3;" horiz-adv-x="574" 
d="M217 564l-131 148h196l63 -148h-128zM193 -3l-198 519h184l108 -343l107 343h185l-224 -582c-33 -86 -62 -134 -147 -134h-158v143h81c31 0 45 7 55 35z" />
    <glyph glyph-name="ygrave.ss01" horiz-adv-x="599" 
d="M292 712l63 -148h-128l-131 148h196zM381 267v249h173v-506c0 -117 -74 -216 -273 -216c-144 0 -243 62 -246 185h174c11 -41 36 -60 87 -60c54 0 90 32 90 91v61c-35 -42 -75 -70 -146 -70c-102 0 -205 45 -205 242v273h173v-249c0 -84 21 -124 82 -124
c57 0 91 40 91 124z" />
    <glyph glyph-name="z" unicode="z" horiz-adv-x="517" 
d="M33 373v143h451v-114l-229 -259h240v-143h-473v114l229 259h-218z" />
    <glyph glyph-name="zacute" unicode="&#x17a;" horiz-adv-x="517" 
d="M321 567h-125l68 145h196zM33 373v143h451v-114l-229 -259h240v-143h-473v114l229 259h-218z" />
    <glyph glyph-name="zcaron" unicode="&#x17e;" horiz-adv-x="517" 
d="M208 712l48 -46l48 46h157l-129 -145h-152l-129 145h157zM33 373v143h451v-114l-229 -259h240v-143h-473v114l229 259h-218z" />
    <glyph glyph-name="zdotaccent" unicode="&#x17c;" horiz-adv-x="517" 
d="M256 554c-55 0 -97 40 -97 94s42 94 97 94s97 -40 97 -94s-42 -94 -97 -94zM33 373v143h451v-114l-229 -259h240v-143h-473v114l229 259h-218z" />
    <glyph glyph-name="d_f.dlig" horiz-adv-x="965" 
d="M403 459v241h173v-700h-152l-15 67c-33 -43 -81 -73 -149 -73c-137 0 -236 105 -236 265c0 162 99 263 234 263c65 0 112 -25 145 -63zM960 556h-90c-22 0 -35 -11 -35 -34v-6h125v-143h-121v-373h-173v544c0 99 59 156 167 156h127v-144zM303 131c65 0 102 52 102 127
s-37 127 -102 127c-64 0 -103 -52 -103 -127s39 -127 103 -127z" />
    <glyph glyph-name="d_f_f.dlig" horiz-adv-x="1309" 
d="M403 459v241h173v-700h-152l-15 67c-33 -43 -81 -73 -149 -73c-137 0 -236 105 -236 265c0 162 99 263 234 263c65 0 112 -25 145 -63zM666 0v544c0 99 59 156 167 156h127v-144h-90c-22 0 -35 -11 -35 -34v-6h125v-143h-121v-373h-173zM1304 556h-90
c-22 0 -35 -11 -35 -34v-6h125v-143h-121v-373h-173v544c0 99 59 156 167 156h127v-144zM303 131c65 0 102 52 102 127s-37 127 -102 127c-64 0 -103 -52 -103 -127s39 -127 103 -127z" />
    <glyph glyph-name="d_t.dlig" horiz-adv-x="959" 
d="M403 459v241h173v-700h-152l-15 67c-33 -43 -81 -73 -149 -73c-137 0 -236 105 -236 265c0 162 99 263 234 263c65 0 112 -25 145 -63zM942 516v-143h-111v-183c0 -33 14 -47 47 -47h64v-143h-129c-98 0 -155 52 -155 155v506h173v-145h111zM303 131c65 0 102 52 102 127
s-37 127 -102 127c-64 0 -103 -52 -103 -127s39 -127 103 -127z" />
    <glyph glyph-name="f_f.dlig" horiz-adv-x="724" 
d="M0 373v143h81v28c0 97 59 156 167 156h127v-144h-90c-22 0 -35 -11 -35 -34v-6h125v-143h-121v-373h-173v373h-81zM425 0v544c0 99 59 156 167 156h127v-144h-90c-22 0 -35 -11 -35 -34v-6h125v-143h-121v-373h-173z" />
    <glyph glyph-name="f_f_t.dlig" horiz-adv-x="1062" 
d="M0 373v143h81v28c0 97 59 156 167 156h127v-144h-90c-22 0 -35 -11 -35 -34v-6h125v-143h-121v-373h-173v373h-81zM425 0v544c0 99 59 156 167 156h127v-144h-90c-22 0 -35 -11 -35 -34v-6h125v-143h-121v-373h-173zM761 155v506h173v-145h111v-143h-111v-183
c0 -33 14 -47 47 -47h64v-143h-129c-98 0 -155 52 -155 155z" />
    <glyph glyph-name="f_t.dlig" horiz-adv-x="718" 
d="M0 373v143h81v28c0 97 59 156 167 156h127v-144h-90c-22 0 -35 -11 -35 -34v-6h125v-143h-121v-373h-173v373h-81zM417 155v506h173v-145h111v-143h-111v-183c0 -33 14 -47 47 -47h64v-143h-129c-98 0 -155 52 -155 155z" />
    <glyph glyph-name="fl" unicode="&#xfb02;" horiz-adv-x="643" 
d="M0 373v143h81v28c0 97 59 156 167 156h127v-144h-90c-22 0 -35 -11 -35 -34v-6h125v-143h-121v-373h-173v373h-81zM425 0v700h173v-700h-173z" />
    <glyph glyph-name="k_f.dlig" horiz-adv-x="925" 
d="M45 0v700h173v-373l172 189h190l-177 -197l184 -319h-197l-109 190l-63 -70v-120h-173zM626 0v544c0 99 59 156 167 156h127v-144h-90c-22 0 -35 -11 -35 -34v-6h125v-143h-121v-373h-173z" />
    <glyph glyph-name="k_t.dlig" horiz-adv-x="909" 
d="M45 0v700h173v-373l172 189h190l-177 -197l184 -319h-197l-109 190l-63 -70v-120h-173zM608 155v506h173v-145h111v-143h-111v-183c0 -33 14 -47 47 -47h64v-143h-129c-98 0 -155 52 -155 155z" />
    <glyph glyph-name="l_f.dlig" horiz-adv-x="607" 
d="M45 0v700h173v-700h-173zM308 0v544c0 99 59 156 167 156h127v-144h-90c-22 0 -35 -11 -35 -34v-6h125v-143h-121v-373h-173z" />
    <glyph glyph-name="l_f_f.dlig" horiz-adv-x="951" 
d="M45 0v700h173v-700h-173zM308 0v544c0 99 59 156 167 156h127v-144h-90c-22 0 -35 -11 -35 -34v-6h125v-143h-121v-373h-173zM652 0v544c0 99 59 156 167 156h127v-144h-90c-22 0 -35 -11 -35 -34v-6h125v-143h-121v-373h-173z" />
    <glyph glyph-name="l_t.dlig" horiz-adv-x="601" 
d="M45 0v700h173v-700h-173zM300 155v506h173v-145h111v-143h-111v-183c0 -33 14 -47 47 -47h64v-143h-129c-98 0 -155 52 -155 155z" />
    <glyph glyph-name="l_t_t.dlig" horiz-adv-x="939" 
d="M45 0v700h173v-700h-173zM300 155v506h173v-145h111v-143h-111v-183c0 -33 14 -47 47 -47h64v-143h-129c-98 0 -155 52 -155 155zM638 155v506h173v-145h111v-143h-111v-183c0 -33 14 -47 47 -47h64v-143h-129c-98 0 -155 52 -155 155z" />
    <glyph glyph-name="r_f.dlig" horiz-adv-x="745" 
d="M740 556h-90c-22 0 -35 -11 -35 -34v-6h125v-143h-121v-373h-173v544c0 99 59 156 167 156h127v-144zM204 516l14 -76c29 48 70 76 145 76h25v-153h-65c-71 0 -105 -39 -105 -115v-248h-173v516h159z" />
    <glyph glyph-name="r_t.dlig" horiz-adv-x="739" 
d="M722 516v-143h-111v-183c0 -33 14 -47 47 -47h64v-143h-129c-98 0 -155 52 -155 155v506h173v-145h111zM204 516l14 -76c29 48 70 76 145 76h25v-153h-65c-71 0 -105 -39 -105 -115v-248h-173v516h159z" />
    <glyph glyph-name="t_t.dlig" horiz-adv-x="720" 
d="M81 155v218h-81v143h81v145h173v-145h111v-143h-111v-183c0 -33 14 -47 47 -47h64v-143h-129c-98 0 -155 52 -155 155zM419 155v506h173v-145h111v-143h-111v-183c0 -33 14 -47 47 -47h64v-143h-129c-98 0 -155 52 -155 155z" />
    <glyph glyph-name="v_f.dlig" horiz-adv-x="914" 
d="M615 0v544c0 99 59 156 167 156h127v-144h-90c-22 0 -35 -11 -35 -34v-6h125v-143h-121v-373h-173zM178 0l-183 516h185l108 -345l106 345h181l-182 -516h-215z" />
    <glyph glyph-name="v_t.dlig" horiz-adv-x="908" 
d="M607 155v506h173v-145h111v-143h-111v-183c0 -33 14 -47 47 -47h64v-143h-129c-98 0 -155 52 -155 155zM178 0l-183 516h185l108 -345l106 345h181l-182 -516h-215z" />
    <glyph glyph-name="w_f.dlig" horiz-adv-x="1183" 
d="M884 0v544c0 99 59 156 167 156h127v-144h-90c-22 0 -35 -11 -35 -34v-6h125v-143h-121v-373h-173zM165 0l-170 516h183l91 -334l77 334h154l76 -335l91 335h177l-169 -516h-182l-72 273l-73 -273h-183z" />
    <glyph glyph-name="w_t.dlig" horiz-adv-x="1177" 
d="M876 155v506h173v-145h111v-143h-111v-183c0 -33 14 -47 47 -47h64v-143h-129c-98 0 -155 52 -155 155zM165 0l-170 516h183l91 -334l77 334h154l76 -335l91 335h177l-169 -516h-182l-72 273l-73 -273h-183z" />
    <glyph glyph-name="w_w_w.dlig" horiz-adv-x="2185" 
d="M1922 181l91 335h177l-169 -516h-182l-72 273l-73 -273h-183l-82 248l-81 -248h-182l-72 273l-73 -273h-183l-82 248l-81 -248h-182l-72 273l-73 -273h-183l-170 516h183l91 -334l77 334h154l76 -335l91 335h184l91 -334l77 334h154l76 -335l91 335h184l91 -334l77 334
h154z" />
    <glyph glyph-name="y_f.dlig" horiz-adv-x="918" 
d="M619 0v544c0 99 59 156 167 156h127v-144h-90c-22 0 -35 -11 -35 -34v-6h125v-143h-121v-373h-173zM193 -3l-198 519h184l108 -343l107 343h185l-224 -582c-33 -86 -62 -134 -147 -134h-158v143h81c31 0 45 7 55 35z" />
    <glyph glyph-name="y_t.dlig" horiz-adv-x="912" 
d="M611 155v506h173v-145h111v-143h-111v-183c0 -33 14 -47 47 -47h64v-143h-129c-98 0 -155 52 -155 155zM193 -3l-198 519h184l108 -343l107 343h185l-224 -582c-33 -86 -62 -134 -147 -134h-158v143h81c31 0 45 7 55 35z" />
    <glyph glyph-name="ordfeminine" unicode="&#xaa;" horiz-adv-x="422" 
d="M41 471c0 68 56 106 162 106h45v12c0 22 -18 36 -47 36c-22 0 -38 -12 -40 -30h-114c5 72 67 111 159 111c97 0 155 -41 155 -123v-96c0 -16 6 -19 19 -19h7v-85h-53c-48 0 -65 21 -65 48v3c-23 -38 -55 -54 -104 -54c-69 0 -124 30 -124 91zM248 512v1h-49
c-27 0 -44 -13 -44 -33c0 -16 14 -26 36 -26c35 0 57 22 57 58zM40 240v90h347v-90h-347z" />
    <glyph glyph-name="ordmasculine" unicode="&#xba;" horiz-adv-x="429" 
d="M389 543c0 -99 -68 -163 -175 -163c-106 0 -174 64 -174 163s68 163 174 163c107 0 175 -64 175 -163zM156 543c0 -46 21 -76 58 -76s59 30 59 76s-22 76 -59 76s-58 -30 -58 -76zM41 240v90h347v-90h-347z" />
    <glyph glyph-name="uni0410" unicode="&#x410;" horiz-adv-x="720" 
d="M191 0h-191l250 700h222l248 -700h-198l-44 133h-244zM355 505l-74 -227h149z" />
    <glyph glyph-name="uni0411" unicode="&#x411;" horiz-adv-x="623" 
d="M353 0h-298v700h494v-149h-310v-115h114c150 0 255 -67 255 -216s-105 -220 -255 -220zM239 289v-142h97c55 0 85 27 85 71s-30 71 -85 71h-97z" />
    <glyph glyph-name="uni0412" unicode="&#x412;" horiz-adv-x="648" 
d="M55 0v700h277c168 0 268 -66 268 -185c0 -92 -56 -143 -144 -156c103 -11 167 -61 167 -160c0 -122 -100 -199 -276 -199h-292zM335 561h-96v-140h96c51 0 81 28 81 70s-30 70 -81 70zM349 284h-110v-144h110c53 0 85 27 85 72s-32 72 -85 72z" />
    <glyph glyph-name="uni0413" unicode="&#x413;" horiz-adv-x="522" 
d="M239 0h-184v700h447v-156h-263v-544z" />
    <glyph glyph-name="uni0403" unicode="&#x403;" horiz-adv-x="522" 
d="M356 751h-125l68 145h196zM239 0h-184v700h447v-156h-263v-544z" />
    <glyph glyph-name="uni0490" unicode="&#x490;" horiz-adv-x="548" 
d="M352 700v143h176v-299h-289v-544h-184v700h297z" />
    <glyph glyph-name="uni0414" unicode="&#x414;" horiz-adv-x="804" 
d="M699 700v-544h90v-299h-176v143h-426v-143h-176v299h61c43 28 66 89 66 265v279h561zM266 156h249v388h-204v-146c0 -124 -12 -192 -45 -242z" />
    <glyph glyph-name="uni0415" unicode="&#x415;" horiz-adv-x="579" 
d="M55 0v700h483v-156h-299v-120h239v-146h-239v-122h310v-156h-494z" />
    <glyph glyph-name="uni0400" unicode="&#x400;" horiz-adv-x="579" 
d="M239 748l-131 148h196l63 -148h-128zM55 0v700h483v-156h-299v-120h239v-146h-239v-122h310v-156h-494z" />
    <glyph glyph-name="uni0401" unicode="&#x401;" horiz-adv-x="579" 
d="M108 837c0 49 39 85 88 85c50 0 88 -36 88 -85c0 -48 -38 -84 -88 -84c-49 0 -88 36 -88 84zM331 837c0 49 38 85 87 85c50 0 88 -36 88 -85c0 -48 -38 -84 -88 -84c-49 0 -87 36 -87 84zM55 0v700h483v-156h-299v-120h239v-146h-239v-122h310v-156h-494z" />
    <glyph glyph-name="uni0416" unicode="&#x416;" horiz-adv-x="1072" 
d="M220 0h-213l227 368l-215 332h201l163 -268h61v268h184v-268h61l163 268h201l-215 -332l227 -368h-213l-160 276h-64v-276h-184v276h-64z" />
    <glyph glyph-name="uni0417" unicode="&#x417;" horiz-adv-x="631" 
d="M317 -6c-186 0 -285 78 -295 239h178c10 -69 48 -99 120 -99c57 0 99 27 99 78c0 47 -31 69 -102 69h-87v142h77c67 0 100 27 100 72s-34 71 -96 71c-67 0 -103 -35 -114 -92h-174c12 135 114 232 293 232c171 0 276 -69 276 -196c0 -82 -53 -130 -122 -150
c74 -19 136 -68 136 -159c0 -133 -115 -207 -289 -207z" />
    <glyph glyph-name="uni0418" unicode="&#x418;" horiz-adv-x="719" 
d="M222 0h-167v700h181v-404l261 404h167v-700h-181v404z" />
    <glyph glyph-name="uni0419" unicode="&#x419;" horiz-adv-x="719" 
d="M358 744c-101 0 -171 42 -172 152h119c0 -37 14 -63 56 -63c41 0 55 26 55 63h120c-2 -110 -75 -152 -178 -152zM222 0h-167v700h181v-404l261 404h167v-700h-181v404z" />
    <glyph glyph-name="uni040D" unicode="&#x40d;" horiz-adv-x="719" 
d="M293 748l-131 148h196l63 -148h-128zM222 0h-167v700h181v-404l261 404h167v-700h-181v404z" />
    <glyph glyph-name="uni040D" unicode="&#x45d;" horiz-adv-x="719" 
d="M293 748l-131 148h196l63 -148h-128zM222 0h-167v700h181v-404l261 404h167v-700h-181v404z" />
    <glyph glyph-name="uni040D" unicode="&#x45d;" horiz-adv-x="719" 
d="M293 748l-131 148h196l63 -148h-128zM222 0h-167v700h181v-404l261 404h167v-700h-181v404z" />
    <glyph glyph-name="uni041A" unicode="&#x41a;" horiz-adv-x="721" 
d="M239 0h-184v700h184v-268h86l168 268h207l-220 -332l234 -368h-219l-167 276h-89v-276z" />
    <glyph glyph-name="uni040C" unicode="&#x40c;" horiz-adv-x="721" 
d="M416 751h-125l68 145h196zM239 0h-184v700h184v-268h86l168 268h207l-220 -332l234 -368h-219l-167 276h-89v-276z" />
    <glyph glyph-name="uni041B" unicode="&#x41b;" horiz-adv-x="722" 
d="M49 0h-42v156h20c58 0 87 43 87 197v347h553v-700h-184v544h-196v-207c0 -241 -74 -337 -238 -337z" />
    <glyph glyph-name="uni041B.loclBGR" horiz-adv-x="699" 
d="M463 700l236 -700h-195l-155 488l-158 -488h-191l235 700h228z" />
    <glyph glyph-name="uni041C" unicode="&#x41c;" horiz-adv-x="916" 
d="M55 0v700h244l166 -478l157 478h239v-700h-175v424l-155 -424h-146l-155 424v-424h-175z" />
    <glyph glyph-name="uni041D" unicode="&#x41d;" horiz-adv-x="711" 
d="M55 0v700h184v-269h233v269h184v-700h-184v275h-233v-275h-184z" />
    <glyph glyph-name="uni041E" unicode="&#x41e;" horiz-adv-x="760" 
d="M734 350c0 -203 -143 -356 -354 -356s-354 153 -354 356s143 356 354 356s354 -153 354 -356zM214 350c0 -117 64 -204 166 -204s166 87 166 204s-64 204 -166 204s-166 -87 -166 -204z" />
    <glyph glyph-name="uni041F" unicode="&#x41f;" horiz-adv-x="708" 
d="M239 0h-184v700h598v-700h-184v544h-230v-544z" />
    <glyph glyph-name="uni0420" unicode="&#x420;" horiz-adv-x="637" 
d="M55 0v700h294c159 0 265 -95 265 -242s-106 -242 -265 -242h-110v-216h-184zM332 550h-93v-184h93c58 0 95 35 95 92s-37 92 -95 92z" />
    <glyph glyph-name="uni0421" unicode="&#x421;" horiz-adv-x="697" 
d="M364 -6c-211 0 -338 140 -338 356s131 356 348 356c172 0 292 -111 305 -267h-184c-13 67 -59 115 -131 115c-96 0 -150 -84 -150 -204s54 -204 150 -204c72 0 118 48 131 115h184c-13 -156 -137 -267 -315 -267z" />
    <glyph glyph-name="uni0422" unicode="&#x422;" horiz-adv-x="602" 
d="M20 544v156h562v-156h-189v-544h-184v544h-189z" />
    <glyph glyph-name="uni0423" unicode="&#x423;" horiz-adv-x="662" 
d="M210 0h-116v156h65c60 0 83 11 98 47l7 17l-269 480h198l158 -292l129 292h187l-250 -545c-53 -116 -119 -155 -207 -155z" />
    <glyph glyph-name="uni040E" unicode="&#x40e;" horiz-adv-x="662" 
d="M326 744c-101 0 -171 42 -172 152h119c0 -37 14 -63 56 -63c41 0 55 26 55 63h120c-2 -110 -75 -152 -178 -152zM210 0h-116v156h65c60 0 83 11 98 47l7 17l-269 480h198l158 -292l129 292h187l-250 -545c-53 -116 -119 -155 -207 -155z" />
    <glyph glyph-name="uni0424" unicode="&#x424;" horiz-adv-x="908" 
d="M882 350c0 -179 -130 -288 -340 -307v-83h-176v83c-210 19 -340 128 -340 307s130 288 340 307v83h176v-83c210 -19 340 -128 340 -307zM542 514v-328c113 14 158 72 158 164s-45 150 -158 164zM208 350c0 -92 45 -150 158 -164v328c-112 -15 -158 -72 -158 -164z" />
    <glyph glyph-name="uni0424.loclBGR" horiz-adv-x="898" 
d="M872 350c0 -191 -126 -306 -335 -326v-64h-176v64c-209 20 -335 135 -335 326s126 306 335 326v64h176v-64c209 -20 335 -135 335 -326zM208 350c0 -102 46 -166 153 -183v366c-107 -17 -153 -81 -153 -183zM537 533v-366c107 17 153 81 153 183s-46 166 -153 183z" />
    <glyph glyph-name="uni0425" unicode="&#x425;" horiz-adv-x="693" 
d="M7 0l224 357l-215 343h219l115 -196l123 196h204l-215 -343l224 -357h-220l-124 211l-132 -211h-203z" />
    <glyph glyph-name="uni0427" unicode="&#x427;" horiz-adv-x="672" 
d="M433 395v305h184v-700h-184v250c-34 -14 -79 -21 -132 -21c-162 0 -266 75 -266 243v228h184v-208c0 -76 43 -113 119 -113c39 0 70 5 95 16z" />
    <glyph glyph-name="uni0426" unicode="&#x426;" horiz-adv-x="750" 
d="M645 700v-544h90v-299h-176v143h-504v700h184v-544h222v544h184z" />
    <glyph glyph-name="uni0428" unicode="&#x428;" horiz-adv-x="1028" 
d="M973 0h-918v700h184v-544h183v544h184v-544h183v544h184v-700z" />
    <glyph glyph-name="uni0429" unicode="&#x429;" horiz-adv-x="1078" 
d="M973 700v-544h90v-299h-176v143h-832v700h184v-544h183v544h184v-544h183v544h184z" />
    <glyph glyph-name="uni040F" unicode="&#x40f;" horiz-adv-x="700" 
d="M461 700h184v-700h-203v-143h-184v143h-203v700h184v-544h222v544z" />
    <glyph glyph-name="uni042C" unicode="&#x42c;" horiz-adv-x="648" 
d="M355 0h-300v700h184v-224h116c159 0 265 -93 265 -238s-106 -238 -265 -238zM239 326v-176h99c58 0 95 33 95 88s-37 88 -95 88h-99z" />
    <glyph glyph-name="uni042A" unicode="&#x42a;" horiz-adv-x="780" 
d="M487 0h-300v544h-167v156h351v-224h116c159 0 265 -93 265 -238s-106 -238 -265 -238zM371 326v-176h99c58 0 95 33 95 88s-37 88 -95 88h-99z" />
    <glyph glyph-name="uni042B" unicode="&#x42b;" horiz-adv-x="922" 
d="M349 0h-294v700h184v-224h110c160 0 267 -93 267 -238s-107 -238 -267 -238zM867 0h-184v700h184v-700zM239 326v-176h93c59 0 97 33 97 88s-38 88 -97 88h-93z" />
    <glyph glyph-name="uni0409" unicode="&#x409;" horiz-adv-x="1051" 
d="M49 0h-42v156h20c58 0 87 43 87 197v347h542v-244h111c154 0 256 -89 256 -228s-103 -228 -256 -228h-295v544h-185v-207c0 -241 -74 -337 -238 -337zM656 306v-156h94c52 0 86 29 86 78s-34 78 -86 78h-94z" />
    <glyph glyph-name="uni040A" unicode="&#x40a;" horiz-adv-x="1039" 
d="M239 0h-184v700h184v-249h221v249h184v-244h111c154 0 256 -89 256 -228s-103 -228 -256 -228h-295v295h-221v-295zM644 306v-156h94c52 0 86 29 86 78s-34 78 -86 78h-94z" />
    <glyph glyph-name="uni0405" unicode="&#x405;" horiz-adv-x="634" 
d="M27 231l179 -4c4 -53 47 -92 122 -92c56 0 98 22 98 67c0 43 -42 52 -165 77c-121 25 -218 62 -218 208c0 127 106 219 273 219c170 0 279 -86 279 -224h-179c-4 47 -38 82 -100 82c-50 0 -88 -20 -88 -63c0 -42 39 -51 161 -75c123 -24 223 -59 222 -203
c-1 -136 -113 -229 -286 -229c-181 0 -298 92 -298 237z" />
    <glyph glyph-name="uni0404" unicode="&#x404;" horiz-adv-x="697" 
d="M362 143c78 0 121 49 134 108h183c-19 -149 -138 -257 -315 -257c-211 0 -338 140 -338 356s131 356 348 356c172 0 286 -109 305 -257h-183c-14 60 -58 108 -132 108c-76 0 -128 -48 -146 -134h215v-142h-216c17 -90 69 -138 145 -138z" />
    <glyph glyph-name="uni042D" unicode="&#x42d;" horiz-adv-x="697" 
d="M333 706c211 0 338 -140 338 -356s-131 -356 -348 -356c-172 0 -286 109 -305 257h183c14 -60 58 -108 132 -108c78 0 130 50 147 138h-216v142h215c-17 87 -69 134 -144 134c-78 0 -121 -49 -134 -108h-183c19 149 138 257 315 257z" />
    <glyph glyph-name="uni0406" unicode="&#x406;" horiz-adv-x="294" 
d="M55 0v700h184v-700h-184z" />
    <glyph glyph-name="uni0407" unicode="&#x407;" horiz-adv-x="294" 
d="M-52 837c0 49 39 85 88 85c50 0 88 -36 88 -85c0 -48 -38 -84 -88 -84c-49 0 -88 36 -88 84zM171 837c0 49 38 85 87 85c50 0 88 -36 88 -85c0 -48 -38 -84 -88 -84c-49 0 -87 36 -87 84zM55 0v700h184v-700h-184z" />
    <glyph glyph-name="uni0408" unicode="&#x408;" horiz-adv-x="422" 
d="M183 238v462h184v-503c0 -123 -75 -197 -198 -197h-149v156h85c56 0 78 27 78 82z" />
    <glyph glyph-name="uni040B" unicode="&#x40b;" horiz-adv-x="824" 
d="M530 437c149 0 251 -72 251 -235v-202h-184v176c0 76 -44 111 -107 111c-36 0 -70 -6 -97 -17v-270h-184v544h-189v156h602v-156h-229v-127c35 13 82 20 137 20z" />
    <glyph glyph-name="uni042E" unicode="&#x42e;" horiz-adv-x="1051" 
d="M678 706c209 0 347 -153 347 -356s-138 -356 -347 -356c-183 0 -311 117 -341 282h-98v-276h-184v700h184v-270h100c31 162 159 276 339 276zM678 146c100 0 159 87 159 204s-59 204 -159 204s-159 -87 -159 -204s59 -204 159 -204z" />
    <glyph glyph-name="uni042F" unicode="&#x42f;" horiz-adv-x="661" 
d="M307 700h299v-700h-184v220h-78l-116 -220h-213l147 251c-78 39 -125 113 -125 209c0 145 109 240 270 240zM321 370h101v180h-101c-60 0 -97 -35 -97 -90s37 -90 97 -90z" />
    <glyph glyph-name="uni0402" unicode="&#x402;" horiz-adv-x="822" 
d="M533 437c156 0 256 -81 256 -247v-86c0 -158 -96 -239 -244 -239h-52l-1 153h21c54 0 92 35 92 101v49c0 80 -41 119 -115 119c-38 0 -71 -8 -97 -18v-269h-184v544h-189v156h602v-156h-229v-127c37 13 83 20 140 20z" />
    <glyph glyph-name="uni0430" unicode="&#x430;" horiz-adv-x="572" 
d="M556 142h11v-142h-87c-72 0 -97 35 -97 80v4c-38 -60 -90 -90 -165 -90c-111 0 -194 51 -194 152c0 113 88 177 253 177h76v20c0 36 -25 60 -73 60c-46 0 -77 -20 -80 -50h-166c9 100 107 169 251 169c151 0 239 -64 239 -189v-160c0 -26 11 -31 32 -31zM353 214v2h-73
c-52 0 -82 -22 -82 -57c0 -28 22 -46 57 -46c59 0 97 39 98 101z" />
    <glyph glyph-name="uni0430.ss01" horiz-adv-x="621" 
d="M408 452l15 64h153v-516h-154l-13 67c-33 -41 -82 -72 -149 -72c-137 -1 -236 104 -236 264c0 162 99 265 234 265c68 0 117 -30 150 -72zM303 131c65 0 102 51 102 126s-37 127 -102 127c-64 0 -103 -52 -103 -127s39 -126 103 -126z" />
    <glyph glyph-name="uni0430.ss02" horiz-adv-x="559" 
d="M285 522c151 0 239 -64 239 -189v-333h-153l-13 59c-38 -43 -82 -65 -149 -65c-112 0 -185 53 -185 154c0 112 89 175 255 175h74v20c0 36 -25 60 -73 60c-46 0 -77 -20 -80 -50h-166c9 100 107 169 251 169zM255 113c59 0 97 39 98 101v2h-73c-52 0 -82 -22 -82 -57
c0 -28 22 -46 57 -46z" />
    <glyph glyph-name="uni0431" unicode="&#x431;" horiz-adv-x="607" 
d="M347 470c136 0 236 -81 236 -230c0 -141 -100 -246 -285 -246c-166 0 -269 94 -269 317c0 238 74 345 312 373l190 22v-147l-151 -17c-143 -16 -188 -43 -210 -141c36 42 96 69 177 69zM305 121c63 0 102 46 102 111c0 63 -39 111 -100 111c-63 0 -102 -46 -102 -110
s39 -112 100 -112z" />
    <glyph glyph-name="uni0431.loclSRB" horiz-adv-x="600" 
d="M296 -6c-169 0 -272 84 -272 224c0 108 51 170 139 199c-68 25 -108 56 -108 136c0 89 67 147 188 147h289v-141l-256 1c-30 0 -52 -7 -52 -32c0 -24 19 -33 64 -41c79 -14 119 -22 170 -50c86 -47 118 -118 118 -200c0 -150 -105 -243 -280 -243zM300 122
c61 0 100 41 100 110c0 67 -39 111 -100 111s-100 -44 -100 -111c0 -69 39 -110 100 -110z" />
    <glyph glyph-name="uni0432" unicode="&#x432;" horiz-adv-x="554" 
d="M289 0h-244v516h238c149 0 230 -47 230 -133c0 -76 -44 -105 -107 -116c80 -11 123 -47 123 -121c0 -100 -79 -146 -240 -146zM210 405v-94h67c39 0 61 17 61 47s-22 47 -61 47h-67zM210 207v-96h83c39 0 61 17 61 48s-22 48 -61 48h-83z" />
    <glyph glyph-name="uni0432.loclBGR" horiz-adv-x="591" 
d="M296 -6c-180 0 -261 84 -261 232v243c0 164 120 237 262 237c152 0 250 -72 250 -190c0 -68 -35 -121 -85 -147c56 -22 109 -64 109 -161c0 -122 -98 -214 -275 -214zM208 488l-1 -68l72 -2c69 -2 94 42 94 86c0 45 -28 74 -80 74c-55 0 -84 -37 -85 -90zM303 122
c59 0 92 35 92 91c0 52 -37 84 -94 84h-93v-77c0 -65 33 -98 95 -98z" />
    <glyph glyph-name="uni0433" unicode="&#x433;" horiz-adv-x="421" 
d="M218 0h-173v516h371v-143h-198v-373z" />
    <glyph glyph-name="uni0433.loclBGR" horiz-adv-x="554" 
d="M275 -6c-152 0 -250 49 -250 159c0 118 101 151 219 168c75 11 110 19 110 50c0 25 -26 36 -72 36c-51 0 -85 -22 -88 -52h-162c6 99 107 169 257 169c142 0 233 -50 233 -161c0 -106 -94 -144 -218 -164c-86 -14 -107 -23 -107 -48c0 -30 26 -40 79 -40
c51 0 86 25 92 62h162c-7 -110 -106 -179 -255 -179z" />
    <glyph glyph-name="uni0453" unicode="&#x453;" horiz-adv-x="421" 
d="M278 567h-125l68 145h196zM218 0h-173v516h371v-143h-198v-373z" />
    <glyph glyph-name="uni0491" unicode="&#x491;" horiz-adv-x="441" 
d="M271 516v138h165v-282h-165v1h-53v-373h-173v516h226z" />
    <glyph glyph-name="uni0434" unicode="&#x434;" horiz-adv-x="677" 
d="M580 516v-373h87v-278h-165v135h-330v-135h-165v278h56c33 15 50 49 50 168v205h467zM244 143h163v230h-136v-82c0 -70 -9 -116 -27 -148z" />
    <glyph glyph-name="uni0434.loclBGR" horiz-adv-x="621" 
d="M410 451l13 65h153v-506c0 -117 -78 -216 -287 -216c-150 0 -253 67 -256 190h174c11 -41 41 -65 95 -65c64 0 105 33 105 97v54c-34 -37 -82 -62 -147 -62c-137 -1 -236 103 -236 258c0 157 99 258 234 258c69 0 118 -31 152 -73zM303 142c65 0 102 50 102 122
s-37 123 -102 123c-64 0 -103 -51 -103 -123s39 -122 103 -122z" />
    <glyph glyph-name="uni0435" unicode="&#x435;" horiz-adv-x="593" 
d="M309 -6c-181 0 -285 102 -285 262c0 163 109 266 276 266c159 0 269 -99 269 -249c0 -18 -1 -37 -5 -56h-360v-7c3 -60 43 -91 100 -91c48 0 79 19 89 57h170c-14 -99 -106 -182 -254 -182zM206 323h192c-10 49 -45 76 -97 76c-53 0 -87 -27 -95 -76z" />
    <glyph glyph-name="uni0450" unicode="&#x450;" horiz-adv-x="593" 
d="M229 564l-131 148h196l63 -148h-128zM309 -6c-181 0 -285 102 -285 262c0 163 109 266 276 266c159 0 269 -99 269 -249c0 -18 -1 -37 -5 -56h-360v-7c3 -60 43 -91 100 -91c48 0 79 19 89 57h170c-14 -99 -106 -182 -254 -182zM206 323h192c-10 49 -45 76 -97 76
c-53 0 -87 -27 -95 -76z" />
    <glyph glyph-name="uni0451" unicode="&#x451;" horiz-adv-x="593" 
d="M98 653c0 49 39 85 88 85c50 0 88 -36 88 -85c0 -48 -38 -84 -88 -84c-49 0 -88 36 -88 84zM321 653c0 49 38 85 87 85c50 0 88 -36 88 -85c0 -48 -38 -84 -88 -84c-49 0 -87 36 -87 84zM309 -6c-181 0 -285 102 -285 262c0 163 109 266 276 266c159 0 269 -99 269 -249
c0 -18 -1 -37 -5 -56h-360v-7c3 -60 43 -91 100 -91c48 0 79 19 89 57h170c-14 -99 -106 -182 -254 -182zM206 323h192c-10 49 -45 76 -97 76c-53 0 -87 -27 -95 -76z" />
    <glyph glyph-name="uni0436" unicode="&#x436;" horiz-adv-x="837" 
d="M187 0h-193l158 274l-149 242h181l110 -185h40v185h169v-185h40l110 185h181l-149 -242l158 -274h-193l-106 188h-41v-188h-169v188h-41z" />
    <glyph glyph-name="uni0436.loclBGR" horiz-adv-x="837" 
d="M187 0h-193l158 274l-149 242h181l110 -185h40v369h169v-369h40l110 185h181l-149 -242l158 -274h-193l-106 188h-41v-188h-169v188h-41z" />
    <glyph glyph-name="uni0437" unicode="&#x437;" horiz-adv-x="558" 
d="M422 268c70 -12 111 -49 111 -117c0 -96 -99 -157 -260 -157c-178 0 -243 70 -248 189h168c4 -44 29 -73 82 -73s83 19 83 51c0 29 -20 42 -67 42h-62v113h52c46 0 68 18 68 47c0 28 -24 43 -69 43c-54 0 -79 -23 -84 -65h-168c8 109 94 181 256 181
c156 0 239 -56 239 -143c0 -61 -40 -97 -101 -111z" />
    <glyph glyph-name="uni0437.loclBGR" horiz-adv-x="557" 
d="M270 -206c-164 0 -260 84 -260 228h172c2 -56 30 -91 89 -91c56 0 90 34 90 85c0 48 -31 75 -89 75h-91v140h85c53 0 85 33 85 80c0 46 -33 78 -81 78c-54 0 -86 -31 -89 -87h-168c2 138 107 222 264 222c154 0 247 -79 247 -195c0 -85 -52 -138 -117 -160
c73 -20 129 -70 129 -160c0 -126 -108 -215 -266 -215z" />
    <glyph glyph-name="uni0438" unicode="&#x438;" horiz-adv-x="615" 
d="M195 0h-150v516h167v-279l208 279h150v-516h-167v279z" />
    <glyph glyph-name="uni0438.loclBGR" horiz-adv-x="599" 
d="M381 258v258h173v-516h-154l-13 59c-34 -39 -77 -65 -147 -65c-102 0 -205 47 -205 236v286h173v-259c0 -84 21 -123 82 -123c57 0 91 40 91 124z" />
    <glyph glyph-name="uni0439" unicode="&#x439;" horiz-adv-x="615" 
d="M305 560c-101 0 -171 42 -172 152h119c0 -37 14 -63 56 -63c41 0 55 26 55 63h120c-2 -110 -75 -152 -178 -152zM195 0h-150v516h167v-279l208 279h150v-516h-167v279z" />
    <glyph glyph-name="uni0439.loclBGR" horiz-adv-x="599" 
d="M292 560c-101 0 -171 42 -172 152h119c0 -37 14 -63 56 -63c41 0 55 26 55 63h120c-2 -110 -75 -152 -178 -152zM381 258v258h173v-516h-154l-13 59c-34 -39 -77 -65 -147 -65c-102 0 -205 47 -205 236v286h173v-259c0 -84 21 -123 82 -123c57 0 91 40 91 124z" />
    <glyph glyph-name="uni045D.loclBGR" horiz-adv-x="599" 
d="M292 712l63 -148h-128l-131 148h196zM381 258v258h173v-516h-154l-13 59c-34 -39 -77 -65 -147 -65c-102 0 -205 47 -205 236v286h173v-259c0 -84 21 -123 82 -123c57 0 91 40 91 124z" />
    <glyph glyph-name="uni043A" unicode="&#x43a;" horiz-adv-x="589" 
d="M218 0h-173v516h173v-185h65l116 185h185l-153 -242l164 -274h-197l-114 188h-66v-188z" />
    <glyph glyph-name="uni043A.loclBGR" horiz-adv-x="589" 
d="M218 0h-173v700h173v-369h65l116 185h185l-153 -242l164 -274h-197l-114 188h-66v-188z" />
    <glyph glyph-name="uni045C" unicode="&#x45c;" horiz-adv-x="589" 
d="M363 567h-125l68 145h196zM218 0h-173v516h173v-185h65l116 185h185l-153 -242l164 -274h-197l-114 188h-66v-188z" />
    <glyph glyph-name="uni043B" unicode="&#x43b;" horiz-adv-x="592" 
d="M55 0h-52v143h25c41 0 58 29 58 130v243h461v-516h-173v373h-130v-107c0 -203 -63 -266 -189 -266z" />
    <glyph glyph-name="uni043B.loclBGR" horiz-adv-x="582" 
d="M181 0h-181l178 516h225l179 -516h-185l-109 355z" />
    <glyph glyph-name="uni043C" unicode="&#x43c;" horiz-adv-x="750" 
d="M200 0h-155v516h201l136 -331l127 331h196v-516h-155v270l-110 -270h-130l-110 270v-270z" />
    <glyph glyph-name="uni043D" unicode="&#x43d;" horiz-adv-x="611" 
d="M393 331v185h173v-516h-173v188h-175v-188h-173v516h173v-185h175z" />
    <glyph glyph-name="uni043E" unicode="&#x43e;" horiz-adv-x="610" 
d="M305 -6c-172 0 -281 104 -281 264s109 264 281 264s281 -104 281 -264s-109 -264 -281 -264zM305 132c67 0 105 51 105 126s-38 126 -105 126s-105 -51 -105 -126s38 -126 105 -126z" />
    <glyph glyph-name="uni043F" unicode="&#x43f;" horiz-adv-x="601" 
d="M218 0h-173v516h511v-516h-173v373h-165v-373z" />
    <glyph glyph-name="uni043F.loclBGR" horiz-adv-x="605" 
d="M364 522c110 0 206 -57 206 -236v-286h-173v267c0 76 -24 117 -85 117c-60 0 -94 -41 -94 -117v-267h-173v516h152l13 -62c34 41 79 68 154 68z" />
    <glyph glyph-name="uni0440" unicode="&#x440;" horiz-adv-x="621" 
d="M361 522c137 1 236 -105 236 -265c0 -162 -99 -263 -234 -263c-65 0 -112 26 -145 65v-259h-173v716h152l14 -65c33 42 82 71 150 71zM318 131c64 0 103 53 103 128s-39 126 -103 126c-65 0 -102 -51 -102 -126s37 -128 102 -128z" />
    <glyph glyph-name="uni0441" unicode="&#x441;" horiz-adv-x="581" 
d="M295 -6c-171 0 -271 101 -271 264c0 162 105 264 277 264c148 0 240 -79 259 -207h-180c-10 42 -38 69 -82 69c-61 0 -98 -51 -98 -126s37 -126 98 -126c46 0 75 28 83 73h180c-19 -130 -118 -211 -266 -211z" />
    <glyph glyph-name="uni0442" unicode="&#x442;" horiz-adv-x="481" 
d="M327 0h-173v373h-149v143h471v-143h-149v-373z" />
    <glyph glyph-name="uni0442.loclBGR" horiz-adv-x="909" 
d="M685 522c106 0 189 -60 189 -226v-296h-173v286c0 64 -20 98 -72 98c-48 0 -83 -34 -83 -98v-286h-173v286c0 64 -19 98 -72 98c-49 0 -83 -34 -83 -98v-286h-173v516h152l13 -61c34 40 79 66 152 67c60 1 118 -18 152 -82c37 54 99 82 171 82z" />
    <glyph glyph-name="uni0443" unicode="&#x443;" horiz-adv-x="574" 
d="M193 -3l-198 519h184l108 -343l107 343h185l-224 -582c-33 -86 -62 -134 -147 -134h-158v143h81c31 0 45 7 55 35z" />
    <glyph glyph-name="uni0443.ss01" horiz-adv-x="599" 
d="M381 267v249h173v-506c0 -117 -74 -216 -273 -216c-144 0 -243 62 -246 185h174c11 -41 36 -60 87 -60c54 0 90 32 90 91v61c-35 -42 -75 -70 -146 -70c-102 0 -205 45 -205 242v273h173v-249c0 -84 21 -124 82 -124c57 0 91 40 91 124z" />
    <glyph glyph-name="uni045E" unicode="&#x45e;" horiz-adv-x="574" 
d="M282 560c-101 0 -171 42 -172 152h119c0 -37 14 -63 56 -63c41 0 55 26 55 63h120c-2 -110 -75 -152 -178 -152zM193 -3l-198 519h184l108 -343l107 343h185l-224 -582c-33 -86 -62 -134 -147 -134h-158v143h81c31 0 45 7 55 35z" />
    <glyph glyph-name="uni045E.ss01" horiz-adv-x="599" 
d="M292 560c-101 0 -171 42 -172 152h119c0 -37 14 -63 56 -63c41 0 55 26 55 63h120c-2 -110 -75 -152 -178 -152zM381 267v249h173v-506c0 -117 -74 -216 -273 -216c-144 0 -243 62 -246 185h174c11 -41 36 -60 87 -60c54 0 90 32 90 91v61c-35 -42 -75 -70 -146 -70
c-102 0 -205 45 -205 242v273h173v-249c0 -84 21 -124 82 -124c57 0 91 40 91 124z" />
    <glyph glyph-name="uni0444" unicode="&#x444;" horiz-adv-x="793" 
d="M482 -200h-171v196c-182 10 -287 107 -287 262c0 153 107 252 287 262v164h171v-164c182 -10 287 -107 287 -262c0 -153 -107 -252 -287 -262v-196zM313 134v248c-79 -6 -117 -52 -117 -124s38 -118 117 -124zM480 382v-248c79 6 117 52 117 124s-38 118 -117 124z" />
    <glyph glyph-name="uni0445" unicode="&#x445;" horiz-adv-x="566" 
d="M-6 0l189 262l-182 254h195l91 -132l94 132h183l-180 -254l188 -262h-195l-100 138l-100 -138h-183z" />
    <glyph glyph-name="uni0447" unicode="&#x447;" horiz-adv-x="564" 
d="M346 300v216h173v-516h-173v169c-33 -14 -74 -22 -117 -22c-134 0 -209 57 -209 213v156h173v-141c0 -61 20 -85 83 -85c26 0 49 4 70 10z" />
    <glyph glyph-name="uni0446" unicode="&#x446;" horiz-adv-x="646" 
d="M548 516v-373h88v-278h-165v135h-426v516h173v-373h157v373h173z" />
    <glyph glyph-name="uni0446.loclBGR" horiz-adv-x="652" 
d="M554 516v-373h88v-278h-165v135h-77l-13 59c-34 -39 -77 -65 -147 -65c-102 0 -205 47 -205 236v286h173v-259c0 -84 21 -123 82 -123c57 0 91 40 91 124v258h173z" />
    <glyph glyph-name="uni0448" unicode="&#x448;" horiz-adv-x="851" 
d="M806 0h-761v516h173v-373h121v373h173v-373h121v373h173v-516z" />
    <glyph glyph-name="uni0448.loclBGR" horiz-adv-x="901" 
d="M683 228v288h173v-516h-152l-13 61c-33 -41 -77 -67 -148 -67c-60 0 -118 19 -152 82c-37 -54 -97 -82 -167 -82c-106 0 -189 57 -189 216v306h173v-288c0 -64 19 -96 70 -96c47 0 81 32 81 96v288h173v-288c0 -64 18 -96 70 -96c48 0 81 32 81 96z" />
    <glyph glyph-name="uni0449" unicode="&#x449;" horiz-adv-x="904" 
d="M806 516v-373h88v-278h-165v135h-684v516h173v-373h121v373h173v-373h121v373h173z" />
    <glyph glyph-name="uni0449.loclBGR" horiz-adv-x="954" 
d="M856 516v-373h88v-278h-165v135h-75l-13 61c-33 -41 -77 -67 -148 -67c-60 0 -118 19 -152 82c-37 -54 -97 -82 -167 -82c-106 0 -189 57 -189 216v306h173v-288c0 -64 19 -96 70 -96c47 0 81 32 81 96v288h173v-288c0 -64 18 -96 70 -96c48 0 81 32 81 96v288h173z" />
    <glyph glyph-name="uni045F" unicode="&#x45f;" horiz-adv-x="593" 
d="M375 516h173v-516h-164v-135h-173v135h-166v516h173v-373h157v373z" />
    <glyph glyph-name="uni044C" unicode="&#x44c;" horiz-adv-x="554" 
d="M319 0h-274v516h173v-142h101c134 0 216 -71 216 -188c0 -115 -82 -186 -216 -186zM218 249v-124h70c46 0 71 22 71 62s-25 62 -71 62h-70z" />
    <glyph glyph-name="uni044C.loclBGR" horiz-adv-x="570" 
d="M292 -6c-154 0 -257 76 -257 254v268h173v-140c31 31 70 49 130 49c121 0 213 -72 213 -208c0 -137 -107 -223 -259 -223zM296 121c51 0 88 36 88 87s-37 87 -88 87s-88 -36 -88 -87s37 -87 88 -87z" />
    <glyph glyph-name="uni044A" unicode="&#x44a;" horiz-adv-x="643" 
d="M307 374h101c134 0 216 -71 216 -188c0 -115 -82 -186 -216 -186h-274v373h-129v143h302v-142zM307 125h70c46 0 71 22 71 62s-25 62 -71 62h-70v-124z" />
    <glyph glyph-name="uni044A.loclBGR" horiz-adv-x="670" 
d="M438 425c121 0 213 -72 213 -208c0 -137 -105 -223 -257 -223c-154 0 -259 76 -259 254v125h-130v143h303v-140c31 31 70 49 130 49zM396 121c51 0 88 36 88 87s-37 87 -88 87s-88 -36 -88 -87s37 -87 88 -87z" />
    <glyph glyph-name="uni044B" unicode="&#x44b;" horiz-adv-x="800" 
d="M311 0h-266v516h173v-142h93c134 0 216 -71 216 -188c0 -115 -82 -186 -216 -186zM755 0h-173v516h173v-516zM218 249v-124h62c46 0 71 22 71 62s-25 62 -71 62h-62z" />
    <glyph glyph-name="uni0459" unicode="&#x459;" horiz-adv-x="865" 
d="M55 0h-52v143h27c39 0 56 18 56 70v303h456v-160h101c126 0 203 -67 203 -179c0 -110 -77 -177 -203 -177h-274v373h-125v-171c0 -146 -63 -202 -189 -202zM542 231v-106h69c38 0 59 18 59 53s-21 53 -59 53h-69z" />
    <glyph glyph-name="uni045A" unicode="&#x45a;" horiz-adv-x="881" 
d="M558 356h101c126 0 203 -67 203 -179c0 -110 -77 -177 -203 -177h-274v205h-167v-205h-173v516h173v-168h167v168h173v-160zM558 125h69c38 0 59 18 59 53s-21 53 -59 53h-69v-106z" />
    <glyph glyph-name="uni0455" unicode="&#x455;" horiz-adv-x="547" 
d="M20 173h161c6 -37 37 -62 98 -62c52 0 80 14 80 43c0 30 -25 33 -111 44c-124 15 -218 44 -218 150c0 107 91 176 233 176c150 0 251 -65 257 -169h-162c-4 35 -37 52 -88 52c-46 0 -75 -14 -75 -40c0 -30 38 -32 113 -40c118 -12 219 -41 219 -159
c0 -106 -98 -174 -250 -174c-149 0 -250 69 -257 179z" />
    <glyph glyph-name="uni0454" unicode="&#x454;" horiz-adv-x="589" 
d="M301 127c54 -4 85 24 95 73h173c-19 -131 -123 -206 -270 -206c-173 0 -275 101 -275 264c0 162 107 264 281 264c158 0 246 -82 264 -204h-173c-8 44 -41 71 -95 71c-50 0 -84 -28 -97 -76h135v-113h-134c14 -47 47 -73 96 -73z" />
    <glyph glyph-name="uni044D" unicode="&#x44d;" horiz-adv-x="589" 
d="M290 522c173 0 275 -101 275 -264c0 -162 -107 -264 -281 -264c-158 0 -246 80 -264 206h173c8 -50 41 -73 95 -73c50 0 84 28 97 76h-135v113h134c-14 47 -47 73 -96 73c-54 0 -85 -26 -95 -71h-173c19 128 123 204 270 204z" />
    <glyph glyph-name="uni0456" unicode="&#x456;" horiz-adv-x="264" 
d="M132 554c-55 0 -97 40 -97 94s42 94 97 94s97 -40 97 -94s-42 -94 -97 -94zM45 0v516h174v-516h-174z" />
    <glyph glyph-name="uni0457" unicode="&#x457;" horiz-adv-x="264" 
d="M-67 653c0 49 39 85 88 85c50 0 88 -36 88 -85c0 -48 -38 -84 -88 -84c-49 0 -88 36 -88 84zM156 653c0 49 38 85 87 85c50 0 88 -36 88 -85c0 -48 -38 -84 -88 -84c-49 0 -87 36 -87 84zM45 0v516h174v-516h-174z" />
    <glyph glyph-name="uni0458" unicode="&#x458;" horiz-adv-x="268" 
d="M137 554c-55 0 -97 40 -97 94s42 94 97 94s97 -40 97 -94s-42 -94 -97 -94zM-40 -200v143h42c31 0 48 17 48 58v515h173v-548c0 -97 -57 -168 -157 -168h-106z" />
    <glyph glyph-name="uni045B" unicode="&#x45b;" horiz-adv-x="610" 
d="M367 522c102 0 208 -51 208 -246v-276h-173v269c0 73 -24 115 -85 115c-60 0 -94 -42 -94 -115v-269h-173v555h-72v101h72v44h173v-44h143v-101h-143v-92c33 36 76 59 144 59z" />
    <glyph glyph-name="uni044E" unicode="&#x44e;" horiz-adv-x="858" 
d="M558 522c169 0 276 -104 276 -264s-107 -264 -276 -264c-142 0 -242 75 -269 195h-71v-189h-173v516h173v-186h72c28 118 127 192 268 192zM558 132c64 0 100 51 100 126s-36 126 -100 126s-100 -51 -100 -126s36 -126 100 -126z" />
    <glyph glyph-name="uni044E.loclBGR" horiz-adv-x="858" 
d="M558 522c169 0 276 -104 276 -264s-107 -264 -276 -264c-142 0 -242 75 -269 195h-71v-189h-173v700h173v-370h72c28 118 127 192 268 192zM558 132c64 0 100 51 100 126s-36 126 -100 126s-100 -51 -100 -126s36 -126 100 -126z" />
    <glyph glyph-name="uni044F" unicode="&#x44f;" horiz-adv-x="570" 
d="M261 516h264v-516h-173v151h-71l-83 -151h-193l113 180c-59 24 -91 76 -91 151c0 113 84 185 234 185zM265 276h87v114h-87c-41 0 -63 -23 -63 -57c0 -37 22 -57 63 -57z" />
    <glyph glyph-name="uni0452" unicode="&#x452;" horiz-adv-x="610" 
d="M367 522c102 0 208 -51 208 -246v-308c0 -97 -57 -168 -157 -168h-106v143h42c31 0 48 17 48 58v268c0 73 -24 115 -85 115c-60 0 -94 -42 -94 -115v-269h-173v555h-72v101h72v44h173v-44h143v-101h-143v-92c33 36 76 59 144 59z" />
    <glyph glyph-name="Alpha" unicode="&#x391;" horiz-adv-x="720" 
d="M191 0h-191l250 700h222l248 -700h-198l-44 133h-244zM355 505l-74 -227h149z" />
    <glyph glyph-name="Beta" unicode="&#x392;" horiz-adv-x="648" 
d="M55 0v700h277c168 0 268 -66 268 -185c0 -92 -56 -143 -144 -156c103 -11 167 -61 167 -160c0 -122 -100 -199 -276 -199h-292zM335 561h-96v-140h96c51 0 81 28 81 70s-30 70 -81 70zM349 284h-110v-144h110c53 0 85 27 85 72s-32 72 -85 72z" />
    <glyph glyph-name="Gamma" unicode="&#x393;" horiz-adv-x="547" 
d="M239 0h-184v700h472v-156h-288v-544z" />
    <glyph glyph-name="uni0394" unicode="&#x394;" horiz-adv-x="726" 
d="M701 0h-676v118l233 582h212l231 -582v-118zM356 525l-135 -369h272z" />
    <glyph glyph-name="Epsilon" unicode="&#x395;" horiz-adv-x="579" 
d="M55 0v700h483v-156h-299v-120h239v-146h-239v-122h310v-156h-494z" />
    <glyph glyph-name="Zeta" unicode="&#x396;" horiz-adv-x="639" 
d="M32 546v154h575v-118l-327 -428h334v-154h-589v118l327 428h-320z" />
    <glyph glyph-name="Eta" unicode="&#x397;" horiz-adv-x="711" 
d="M55 0v700h184v-269h233v269h184v-700h-184v275h-233v-275h-184z" />
    <glyph glyph-name="Theta" unicode="&#x398;" horiz-adv-x="760" 
d="M380 -6c-211 0 -354 153 -354 356s143 356 354 356s354 -153 354 -356s-143 -356 -354 -356zM380 146c108 0 176 77 176 204s-68 204 -176 204s-176 -77 -176 -204s68 -204 176 -204zM510 290h-260v120h260v-120z" />
    <glyph glyph-name="Iota" unicode="&#x399;" horiz-adv-x="294" 
d="M55 0v700h184v-700h-184z" />
    <glyph glyph-name="Kappa" unicode="&#x39a;" horiz-adv-x="707" 
d="M55 0v700h184v-274l241 274h223l-260 -291l276 -409h-222l-183 276l-75 -84v-192h-184z" />
    <glyph glyph-name="Lambda" unicode="&#x39b;" horiz-adv-x="699" 
d="M188 0h-188l240 700h218l241 -700h-198l-157 479z" />
    <glyph glyph-name="Mu" unicode="&#x39c;" horiz-adv-x="916" 
d="M55 0v700h244l166 -478l157 478h239v-700h-175v424l-155 -424h-146l-155 424v-424h-175z" />
    <glyph glyph-name="Nu" unicode="&#x39d;" horiz-adv-x="713" 
d="M236 0h-181v700h167l255 -387v387h181v-700h-167l-255 387v-387z" />
    <glyph glyph-name="Xi" unicode="&#x39e;" horiz-adv-x="622" 
d="M582 544h-541v156h541v-156zM541 274h-460v156h460v-156zM587 0h-552v156h552v-156z" />
    <glyph glyph-name="Omicron" unicode="&#x39f;" horiz-adv-x="760" 
d="M734 350c0 -203 -143 -356 -354 -356s-354 153 -354 356s143 356 354 356s354 -153 354 -356zM214 350c0 -117 64 -204 166 -204s166 87 166 204s-64 204 -166 204s-166 -87 -166 -204z" />
    <glyph glyph-name="Pi" unicode="&#x3a0;" horiz-adv-x="711" 
d="M239 0h-184v700h601v-700h-184v544h-233v-544z" />
    <glyph glyph-name="Rho" unicode="&#x3a1;" horiz-adv-x="637" 
d="M55 0v700h294c159 0 265 -95 265 -242s-106 -242 -265 -242h-110v-216h-184zM332 550h-93v-184h93c58 0 95 35 95 92s-37 92 -95 92z" />
    <glyph glyph-name="Sigma" unicode="&#x3a3;" horiz-adv-x="618" 
d="M588 0h-563v122l231 235l-219 221v122h543v-156h-273l149 -157v-57l-174 -174h306v-156z" />
    <glyph glyph-name="Tau" unicode="&#x3a4;" horiz-adv-x="602" 
d="M20 544v156h562v-156h-189v-544h-184v544h-189z" />
    <glyph glyph-name="Upsilon" unicode="&#x3a5;" horiz-adv-x="680" 
d="M248 260l-253 440h215l130 -255l141 255h204l-253 -440v-260h-184v260z" />
    <glyph glyph-name="Phi" unicode="&#x3a6;" horiz-adv-x="854" 
d="M828 350c0 -181 -118 -297 -312 -320v-70h-178v71c-196 24 -312 140 -312 319s116 295 312 319v71h178v-70c194 -23 312 -139 312 -320zM516 525v-350c93 21 134 83 134 175s-41 154 -134 175zM204 350c0 -91 40 -153 134 -174v348c-94 -21 -134 -83 -134 -174z" />
    <glyph glyph-name="Chi" unicode="&#x3a7;" horiz-adv-x="693" 
d="M7 0l224 357l-215 343h219l115 -196l123 196h204l-215 -343l224 -357h-220l-124 211l-132 -211h-203z" />
    <glyph glyph-name="Psi" unicode="&#x3a8;" horiz-adv-x="862" 
d="M640 514v186h179v-196c0 -221 -104 -323 -299 -345v-159h-178v159c-195 22 -299 124 -299 345v196h179v-186c0 -127 31 -182 120 -201v387h178v-387c89 19 120 74 120 201z" />
    <glyph glyph-name="uni03A9" unicode="&#x3a9;" horiz-adv-x="761" 
d="M325 0h-285v156h165v2c-119 37 -164 140 -164 254c0 190 143 294 340 294c199 0 338 -104 338 -293c0 -117 -52 -223 -164 -255v-2h166v-156h-286v209c78 42 96 102 96 181c0 96 -62 164 -151 164s-151 -68 -151 -164c0 -79 17 -139 96 -182v-208z" />
    <glyph glyph-name="Alphatonos" unicode="&#x386;" horiz-adv-x="720" 
d="M101 529h-110l18 171h171zM191 0h-191l250 700h222l248 -700h-198l-44 133h-244zM355 505l-74 -227h149z" />
    <glyph glyph-name="Epsilontonos" unicode="&#x388;" horiz-adv-x="729" 
d="M97 529h-110l18 171h171zM205 0v700h483v-156h-299v-120h239v-146h-239v-122h310v-156h-494z" />
    <glyph glyph-name="Etatonos" unicode="&#x389;" horiz-adv-x="861" 
d="M97 529h-110l18 171h171zM205 0v700h184v-269h233v269h184v-700h-184v275h-233v-275h-184z" />
    <glyph glyph-name="Iotatonos" unicode="&#x38a;" horiz-adv-x="444" 
d="M97 529h-110l18 171h171zM205 0v700h184v-700h-184z" />
    <glyph glyph-name="Omicrontonos" unicode="&#x38c;" horiz-adv-x="810" 
d="M784 350c0 -203 -143 -356 -354 -356s-354 153 -354 356s143 356 354 356s354 -153 354 -356zM85 529h-110l18 171h171zM264 350c0 -117 64 -204 166 -204s166 87 166 204s-64 204 -166 204s-166 -87 -166 -204z" />
    <glyph glyph-name="Upsilontonos" unicode="&#x38e;" horiz-adv-x="840" 
d="M69 529h-110l18 171h171zM408 260l-253 440h215l130 -255l141 255h204l-253 -440v-260h-184v260z" />
    <glyph glyph-name="Omegatonos" unicode="&#x38f;" horiz-adv-x="821" 
d="M385 0h-285v156h165v2c-119 37 -164 140 -164 254c0 190 143 294 340 294c199 0 338 -104 338 -293c0 -117 -52 -223 -164 -255v-2h166v-156h-286v209c78 42 96 102 96 181c0 96 -62 164 -151 164s-151 -68 -151 -164c0 -79 17 -139 96 -182v-208zM74 529h-110l18 171
h171z" />
    <glyph glyph-name="Iotadieresis" unicode="&#x3aa;" horiz-adv-x="294" 
d="M-52 837c0 49 39 85 88 85c50 0 88 -36 88 -85c0 -48 -38 -84 -88 -84c-49 0 -88 36 -88 84zM171 837c0 49 38 85 87 85c50 0 88 -36 88 -85c0 -48 -38 -84 -88 -84c-49 0 -87 36 -87 84zM55 0v700h184v-700h-184z" />
    <glyph glyph-name="Upsilondieresis" unicode="&#x3ab;" horiz-adv-x="680" 
d="M147 837c0 49 39 85 88 85c50 0 88 -36 88 -85c0 -48 -38 -84 -88 -84c-49 0 -88 36 -88 84zM370 837c0 49 38 85 87 85c50 0 88 -36 88 -85c0 -48 -38 -84 -88 -84c-49 0 -87 36 -87 84zM248 260l-253 440h215l130 -255l141 255h204l-253 -440v-260h-184v260z" />
    <glyph glyph-name="alpha" unicode="&#x3b1;" horiz-adv-x="619" 
d="M598 142h11v-142h-97c-62 0 -95 24 -104 77c-32 -47 -82 -83 -153 -83c-134 0 -231 105 -231 265c0 162 97 263 229 263c67 0 114 -28 147 -70l14 64h152v-343c0 -26 11 -31 32 -31zM298 131c62 0 97 52 97 127s-35 127 -97 127c-61 0 -98 -52 -98 -127s37 -127 98 -127z
" />
    <glyph glyph-name="alpha.ss01" horiz-adv-x="621" 
d="M408 452l15 64h153v-516h-154l-13 67c-33 -41 -82 -72 -149 -72c-137 -1 -236 104 -236 264c0 162 99 265 234 265c68 0 117 -30 150 -72zM303 131c65 0 102 51 102 126s-37 127 -102 127c-64 0 -103 -52 -103 -127s39 -126 103 -126z" />
    <glyph glyph-name="beta" unicode="&#x3b2;" horiz-adv-x="632" 
d="M472 377c88 -27 138 -82 138 -176c0 -137 -113 -206 -245 -207c-64 0 -114 22 -147 58v-252h-173v658c0 178 125 248 265 248c154 0 254 -74 254 -190c0 -67 -36 -116 -92 -139zM333 122c54 0 103 28 103 89c0 60 -46 85 -113 85h-31v114h8c68 0 90 39 90 84
c0 44 -28 78 -84 78c-59 0 -88 -41 -88 -93v-259c0 -65 53 -98 115 -98z" />
    <glyph glyph-name="gamma" unicode="&#x3b3;" horiz-adv-x="575" 
d="M399 516h181l-205 -506v-174h-173v171l-207 509h185l111 -318z" />
    <glyph glyph-name="delta" unicode="&#x3b4;" horiz-adv-x="597" 
d="M292 -6c-164 0 -268 85 -268 233c0 111 66 180 144 212c17 7 34 12 51 16l-138 110v135h464v-143h-222l74 -55c124 -92 176 -154 176 -267c0 -131 -95 -241 -281 -241zM299 126c63 0 102 43 102 107c0 63 -39 107 -102 107s-101 -44 -101 -107c0 -64 38 -107 101 -107z
" />
    <glyph glyph-name="delta.ss15" horiz-adv-x="591" 
d="M287 -6c-156 0 -263 81 -263 222c0 67 36 139 106 176c17 9 37 16 58 20c-78 44 -104 79 -104 133c0 96 97 161 228 161c138 0 236 -59 245 -169h-182c-5 37 -26 54 -59 54c-34 0 -49 -17 -49 -39c0 -24 14 -40 78 -73c161 -83 222 -140 222 -256
c0 -125 -103 -229 -280 -229zM296 122c56 0 97 43 97 103c0 59 -41 102 -97 102c-57 0 -98 -43 -98 -102c0 -60 41 -103 98 -103z" />
    <glyph glyph-name="epsilon" unicode="&#x3b5;" horiz-adv-x="544" 
d="M361 179h171c0 -116 -88 -185 -269 -185c-153 0 -246 51 -246 152c0 65 37 103 104 116c-55 15 -88 48 -88 107c0 89 92 153 249 153c158 0 246 -74 248 -180h-171c-3 39 -29 65 -82 65c-45 0 -74 -17 -74 -48c0 -29 23 -41 69 -41h52v-118h-62c-47 0 -70 -13 -70 -44
c0 -32 29 -49 84 -49c53 0 83 28 85 72z" />
    <glyph glyph-name="zeta" unicode="&#x3b6;" horiz-adv-x="526" 
d="M518 -135h-148v68c0 50 -17 65 -67 66l-62 1c-140 2 -217 59 -217 183c0 81 33 150 114 233l139 141h-233v143h451v-114l-153 -158c-99 -103 -142 -154 -142 -214c0 -49 31 -71 85 -72l51 -1c119 -2 182 -41 182 -167v-109z" />
    <glyph glyph-name="eta" unicode="&#x3b7;" horiz-adv-x="618" 
d="M377 522c120 0 206 -64 206 -246v-476h-173v467c0 76 -24 117 -85 117c-60 0 -94 -41 -94 -117v-267h-173v343c0 26 -11 31 -32 31h-11v142h97c59 0 93 -23 100 -72c35 46 82 78 165 78z" />
    <glyph glyph-name="theta" unicode="&#x3b8;" horiz-adv-x="610" 
d="M305 706c174 0 281 -128 281 -356c0 -225 -107 -356 -281 -356s-281 131 -281 356c0 224 107 356 281 356zM305 565c-60 0 -95 -48 -106 -143h212c-10 96 -46 143 -106 143zM305 135c62 0 97 50 107 149h-214c10 -99 45 -149 107 -149z" />
    <glyph glyph-name="iota" unicode="&#x3b9;" horiz-adv-x="301" 
d="M291 0h-101c-101 0 -148 45 -148 147v369h173v-323c0 -43 16 -51 51 -51h25v-142z" />
    <glyph glyph-name="kappa" unicode="&#x3ba;" horiz-adv-x="575" 
d="M403 284l172 -284h-197l-91 162l-69 -82v-80h-173v516h173v-229l83 117c66 93 97 112 190 112h59v-143h-32c-36 0 -47 -4 -79 -44z" />
    <glyph glyph-name="lambda" unicode="&#x3bb;" horiz-adv-x="586" 
d="M184 0h-181l201 492l-8 24c-11 32 -22 41 -57 41h-73v143h121c106 0 131 -29 180 -153l216 -547h-185l-103 302z" />
    <glyph glyph-name="uni03BC" unicode="&#x3bc;" horiz-adv-x="617" 
d="M596 142h11v-142h-97c-52 0 -91 24 -103 64c-34 -51 -80 -70 -136 -70c-22 0 -40 5 -53 10v-204h-173v716h173v-262c0 -78 22 -120 86 -120c54 0 87 42 87 120v262h173v-343c0 -26 11 -31 32 -31z" />
    <glyph glyph-name="nu" unicode="&#x3bd;" horiz-adv-x="570" 
d="M178 0l-183 516h185l108 -345l106 345h181l-182 -516h-215z" />
    <glyph glyph-name="xi" unicode="&#x3be;" horiz-adv-x="533" 
d="M518 -135h-148v68c0 50 -16 65 -61 66l-53 1c-144 3 -225 55 -225 180c0 98 59 152 140 172c-70 14 -117 42 -117 114c0 43 35 76 93 98h-117v136h460v-133c-28 -1 -54 -1 -81 -3c-111 -7 -178 -27 -178 -79c0 -39 27 -65 104 -65h121v-139h-142c-72 0 -107 -22 -107 -77
c0 -43 33 -63 93 -65l37 -1c119 -3 181 -41 181 -164v-109z" />
    <glyph glyph-name="omicron" unicode="&#x3bf;" horiz-adv-x="610" 
d="M305 -6c-172 0 -281 104 -281 264s109 264 281 264s281 -104 281 -264s-109 -264 -281 -264zM305 132c67 0 105 51 105 126s-38 126 -105 126s-105 -51 -105 -126s38 -126 105 -126z" />
    <glyph glyph-name="pi" unicode="&#x3c0;" horiz-adv-x="647" 
d="M629 516v-143h-73v-200c0 -26 10 -31 31 -31h15v-142h-101c-81 0 -119 36 -119 117v256h-126v-373h-173v373h-68v143h614z" />
    <glyph glyph-name="rho" unicode="&#x3c1;" horiz-adv-x="611" 
d="M310 522c171 0 277 -99 277 -260c0 -162 -117 -268 -257 -268c-46 0 -88 11 -122 31v-225h-173v426c0 184 107 296 275 296zM307 131c64 0 104 53 104 128s-39 126 -103 126c-65 0 -103 -53 -103 -128s34 -126 102 -126z" />
    <glyph glyph-name="uni03C2" unicode="&#x3c2;" horiz-adv-x="570" 
d="M512 -135h-148v68c0 50 -17 67 -62 67h-30c-168 0 -248 99 -248 258c0 162 105 264 277 264c148 0 240 -79 259 -207h-180c-10 42 -38 69 -82 69c-61 0 -98 -49 -98 -126c0 -70 32 -117 111 -117h33c112 0 168 -44 168 -167v-109z" />
    <glyph glyph-name="sigma" unicode="&#x3c3;" horiz-adv-x="640" 
d="M305 -6c-172 0 -281 103 -281 261c0 157 108 261 279 261h322v-143h-99c37 -23 60 -74 60 -128c0 -148 -109 -251 -281 -251zM305 132c67 0 105 50 105 123s-38 123 -105 123s-105 -50 -105 -123s38 -123 105 -123z" />
    <glyph glyph-name="tau" unicode="&#x3c4;" horiz-adv-x="507" 
d="M489 516v-143h-158v-183c0 -33 14 -47 47 -47h62v-143h-127c-98 0 -155 52 -155 155v218h-143v143h474z" />
    <glyph glyph-name="upsilon" unicode="&#x3c5;" horiz-adv-x="580" 
d="M290 -6c-127 0 -255 47 -255 236v286h173v-267c0 -78 21 -115 82 -115s82 37 82 115v267h173v-286c0 -189 -128 -236 -255 -236z" />
    <glyph glyph-name="phi" unicode="&#x3c6;" horiz-adv-x="794" 
d="M478 -200h-163v194c-172 4 -286 107 -286 264s114 260 286 264v121h163v-121c171 -3 287 -107 287 -264s-116 -261 -287 -264v-194zM315 132v252c-74 -4 -115 -54 -115 -126s41 -122 115 -126zM478 384v-252c74 4 116 54 116 126s-42 122 -116 126z" />
    <glyph glyph-name="phi.ss14" horiz-adv-x="789" 
d="M760 278c0 -147 -113 -250 -287 -277v-201h-163v198c-187 19 -281 111 -281 267c0 170 118 257 250 257v-145c-36 -5 -76 -36 -76 -110c0 -77 35 -116 107 -130v154c0 149 75 231 211 231c147 0 239 -99 239 -244zM473 317v-178c73 14 111 52 111 142
c0 73 -22 109 -62 109c-31 0 -49 -25 -49 -73z" />
    <glyph glyph-name="chi" unicode="&#x3c7;" horiz-adv-x="576" 
d="M173 -200h-183l206 363l-91 182c-10 20 -22 28 -53 28h-33v143h81c94 0 115 -25 162 -130l40 -90l111 220h173l-198 -349l104 -196c10 -20 22 -28 53 -28h33v-143h-66c-107 0 -124 26 -175 128l-53 106z" />
    <glyph glyph-name="psi" unicode="&#x3c8;" horiz-adv-x="771" 
d="M563 279v237h173v-256c0 -180 -128 -246 -269 -262v-198h-163v199c-144 17 -269 83 -269 261v256h173v-237c0 -81 26 -123 96 -139v503h163v-504c68 16 96 58 96 140z" />
    <glyph glyph-name="omega" unicode="&#x3c9;" horiz-adv-x="798" 
d="M234 -6c-102 0 -205 62 -205 243c0 119 54 234 108 279h179c-69 -87 -111 -170 -111 -282c0 -64 19 -102 58 -102c38 0 57 25 57 80v132h158v-132c0 -55 17 -80 55 -80c39 0 60 38 60 102c0 112 -42 195 -111 282h179c54 -45 108 -160 108 -279
c0 -181 -103 -243 -205 -243c-101 0 -145 46 -165 116c-28 -72 -64 -116 -165 -116z" />
    <glyph glyph-name="omega.ss15" horiz-adv-x="776" 
d="M238 -6c-130 0 -209 102 -209 259c0 180 90 269 231 269v-155c-36 -5 -62 -47 -62 -115c0 -76 28 -108 65 -108c32 0 46 26 46 78v122h158v-122c0 -52 14 -78 47 -78c36 0 64 32 64 108c0 68 -26 110 -62 115v155c141 0 231 -89 231 -269c0 -157 -79 -259 -209 -259
c-83 0 -136 46 -149 120c-17 -74 -68 -120 -151 -120z" />
    <glyph glyph-name="iotatonos" unicode="&#x3af;" horiz-adv-x="301" 
d="M182 567h-110l18 171h171zM291 0h-101c-101 0 -148 45 -148 147v369h173v-323c0 -43 16 -51 51 -51h25v-142z" />
    <glyph glyph-name="iotadieresis" unicode="&#x3ca;" horiz-adv-x="301" 
d="M-71 653c0 49 39 85 88 85c50 0 88 -36 88 -85c0 -48 -38 -84 -88 -84c-49 0 -88 36 -88 84zM152 653c0 49 38 85 87 85c50 0 88 -36 88 -85c0 -48 -38 -84 -88 -84c-49 0 -87 36 -87 84zM291 0h-101c-101 0 -148 45 -148 147v369h173v-323c0 -43 16 -51 51 -51h25v-142z
" />
    <glyph glyph-name="iotadieresistonos" unicode="&#x390;" horiz-adv-x="301" 
d="M-34 577c-47 0 -84 34 -84 82s37 83 84 83s84 -35 84 -83s-37 -82 -84 -82zM165 574h-80l-9 168h139zM304 577c-46 0 -83 34 -83 82s37 83 83 83c47 0 84 -35 84 -83s-37 -82 -84 -82zM291 0h-101c-101 0 -148 45 -148 147v369h173v-323c0 -43 16 -51 51 -51h25v-142z
" />
    <glyph glyph-name="upsilontonos" unicode="&#x3cd;" horiz-adv-x="580" 
d="M344 567h-110l18 171h171zM290 -6c-127 0 -255 47 -255 236v286h173v-267c0 -78 21 -115 82 -115s82 37 82 115v267h173v-286c0 -189 -128 -236 -255 -236z" />
    <glyph glyph-name="upsilondieresis" unicode="&#x3cb;" horiz-adv-x="580" 
d="M91 653c0 49 39 85 88 85c50 0 88 -36 88 -85c0 -48 -38 -84 -88 -84c-49 0 -88 36 -88 84zM314 653c0 49 38 85 87 85c50 0 88 -36 88 -85c0 -48 -38 -84 -88 -84c-49 0 -87 36 -87 84zM290 -6c-127 0 -255 47 -255 236v286h173v-267c0 -78 21 -115 82 -115
s82 37 82 115v267h173v-286c0 -189 -128 -236 -255 -236z" />
    <glyph glyph-name="upsilondieresistonos" unicode="&#x3b0;" horiz-adv-x="580" 
d="M124 577c-47 0 -84 34 -84 82s37 83 84 83s84 -35 84 -83s-37 -82 -84 -82zM323 574h-80l-9 168h139zM462 577c-46 0 -83 34 -83 82s37 83 83 83c47 0 84 -35 84 -83s-37 -82 -84 -82zM290 -6c-127 0 -255 47 -255 236v286h173v-267c0 -78 21 -115 82 -115s82 37 82 115
v267h173v-286c0 -189 -128 -236 -255 -236z" />
    <glyph glyph-name="omicrontonos" unicode="&#x3cc;" horiz-adv-x="610" 
d="M359 567h-110l18 171h171zM305 -6c-172 0 -281 104 -281 264s109 264 281 264s281 -104 281 -264s-109 -264 -281 -264zM305 132c67 0 105 51 105 126s-38 126 -105 126s-105 -51 -105 -126s38 -126 105 -126z" />
    <glyph glyph-name="omegatonos" unicode="&#x3ce;" horiz-adv-x="798" 
d="M453 567h-110l18 171h171zM234 -6c-102 0 -205 62 -205 243c0 119 54 234 108 279h179c-69 -87 -111 -170 -111 -282c0 -64 19 -102 58 -102c38 0 57 25 57 80v132h158v-132c0 -55 17 -80 55 -80c39 0 60 38 60 102c0 112 -42 195 -111 282h179c54 -45 108 -160 108 -279
c0 -181 -103 -243 -205 -243c-101 0 -145 46 -165 116c-28 -72 -64 -116 -165 -116z" />
    <glyph glyph-name="omegatonos.ss15" horiz-adv-x="776" 
d="M443 567h-110l18 171h171zM238 -6c-130 0 -209 102 -209 259c0 180 90 269 231 269v-155c-36 -5 -62 -47 -62 -115c0 -76 28 -108 65 -108c32 0 46 26 46 78v122h158v-122c0 -52 14 -78 47 -78c36 0 64 32 64 108c0 68 -26 110 -62 115v155c141 0 231 -89 231 -269
c0 -157 -79 -259 -209 -259c-83 0 -136 46 -149 120c-17 -74 -68 -120 -151 -120z" />
    <glyph glyph-name="alphatonos" unicode="&#x3ac;" horiz-adv-x="619" 
d="M263 738h171l-79 -171h-110zM598 142h11v-142h-97c-62 0 -95 24 -104 77c-32 -47 -82 -83 -153 -83c-134 0 -231 105 -231 265c0 162 97 263 229 263c67 0 114 -28 147 -70l14 64h152v-343c0 -26 11 -31 32 -31zM298 131c62 0 97 52 97 127s-35 127 -97 127
c-61 0 -98 -52 -98 -127s37 -127 98 -127z" />
    <glyph glyph-name="alphatonos.ss01" horiz-adv-x="621" 
d="M273 738h171l-79 -171h-110zM408 452l15 64h153v-516h-154l-13 67c-33 -41 -82 -72 -149 -72c-137 -1 -236 104 -236 264c0 162 99 265 234 265c68 0 117 -30 150 -72zM303 131c65 0 102 51 102 126s-37 127 -102 127c-64 0 -103 -52 -103 -127s39 -126 103 -126z" />
    <glyph glyph-name="epsilontonos" unicode="&#x3ad;" horiz-adv-x="544" 
d="M241 738h171l-79 -171h-110zM361 179h171c0 -116 -88 -185 -269 -185c-153 0 -246 51 -246 152c0 65 37 103 104 116c-55 15 -88 48 -88 107c0 89 92 153 249 153c158 0 246 -74 248 -180h-171c-3 39 -29 65 -82 65c-45 0 -74 -17 -74 -48c0 -29 23 -41 69 -41h52v-118
h-62c-47 0 -70 -13 -70 -44c0 -32 29 -49 84 -49c53 0 83 28 85 72z" />
    <glyph glyph-name="etatonos" unicode="&#x3ae;" horiz-adv-x="618" 
d="M230 738h171l-79 -171h-110zM377 522c120 0 206 -64 206 -246v-476h-173v467c0 76 -24 117 -85 117c-60 0 -94 -41 -94 -117v-267h-173v343c0 26 -11 31 -32 31h-11v142h97c59 0 93 -23 100 -72c35 46 82 78 165 78z" />
    <glyph glyph-name="u1F10B" unicode="&#x1f10b;" horiz-adv-x="784" 
d="M392 706c213 0 366 -146 366 -356s-153 -356 -366 -356s-366 146 -366 356s153 356 366 356zM392 600c-142 0 -242 -104 -242 -250s100 -250 242 -250s242 104 242 250s-100 250 -242 250zM230 350c0 118 60 188 162 188s162 -70 162 -188s-60 -188 -162 -188
s-162 70 -162 188zM437 350c0 57 -16 88 -45 88s-45 -31 -45 -88c0 -58 16 -88 45 -88s45 30 45 88z" />
    <glyph glyph-name="u1F10B.zero" horiz-adv-x="784" 
d="M392 706c213 0 366 -146 366 -356s-153 -356 -366 -356s-366 146 -366 356s153 356 366 356zM392 600c-142 0 -242 -104 -242 -250s100 -250 242 -250s242 104 242 250s-100 250 -242 250zM392 538c102 0 162 -70 162 -188s-60 -188 -162 -188s-162 70 -162 188
s60 188 162 188zM392 441c-29 0 -48 -31 -48 -91c0 -9 0 -17 1 -25l77 100c-8 11 -18 16 -30 16zM392 259c29 0 48 30 48 91c0 9 0 17 -1 24l-77 -100c8 -10 18 -15 30 -15z" />
    <glyph glyph-name="uni2780" unicode="&#x2780;" horiz-adv-x="784" 
d="M392 706c213 0 366 -146 366 -356s-153 -356 -366 -356s-366 146 -366 356s153 356 366 356zM392 600c-142 0 -242 -104 -242 -250s100 -250 242 -250s242 104 242 250s-100 250 -242 250zM346 511v21h111v-363l-114 -1v201h-18h-61v102h53c19 0 29 19 29 40z" />
    <glyph glyph-name="uni2780.ss09" horiz-adv-x="784" 
d="M392 706c213 0 366 -146 366 -356s-153 -356 -366 -356s-366 146 -366 356s153 356 366 356zM392 600c-142 0 -242 -104 -242 -250s100 -250 242 -250s242 104 242 250s-100 250 -242 250zM457 532v-261h71v-103h-264v102h79v99h-18h-61v102h53c19 0 29 19 29 40v21h111z
" />
    <glyph glyph-name="uni2781" unicode="&#x2781;" horiz-adv-x="784" 
d="M392 706c213 0 366 -146 366 -356s-153 -356 -366 -356s-366 146 -366 356s153 356 366 356zM392 600c-142 0 -242 -104 -242 -250s100 -250 242 -250s242 104 242 250s-100 250 -242 250zM349 387h-115v6c0 88 67 145 150 145c91 0 155 -51 155 -128
c0 -54 -31 -83 -64 -104l-56 -36h125v-102h-302v96l144 93c17 11 33 27 33 50c0 19 -14 31 -33 31c-23 0 -37 -16 -37 -49v-2z" />
    <glyph glyph-name="uni2782" unicode="&#x2782;" horiz-adv-x="784" 
d="M392 706c213 0 366 -146 366 -356s-153 -356 -366 -356s-366 146 -366 356s153 356 366 356zM392 600c-142 0 -242 -104 -242 -250s100 -250 242 -250s242 104 242 250s-100 250 -242 250zM354 410h-114c2 80 59 128 153 128c93 0 143 -44 143 -101
c0 -43 -29 -69 -62 -79c46 -9 73 -39 73 -82c0 -71 -58 -114 -161 -114s-156 47 -158 135h117c2 -23 12 -40 39 -40c21 0 39 12 39 31c0 17 -12 30 -40 30h-21v69h20c22 0 38 10 38 28c0 17 -12 28 -32 28c-22 0 -32 -14 -34 -33z" />
    <glyph glyph-name="uni2783" unicode="&#x2783;" horiz-adv-x="784" 
d="M392 706c213 0 366 -146 366 -356s-153 -356 -366 -356s-366 146 -366 356s153 356 366 356zM392 600c-142 0 -242 -104 -242 -250s100 -250 242 -250s242 104 242 250s-100 250 -242 250zM214 340l134 192h145v-197h51v-94h-51v-73h-114v73h-165v99zM379 335v97l-63 -97
h63z" />
    <glyph glyph-name="uni2783.ss10" horiz-adv-x="784" 
d="M392 706c213 0 366 -146 366 -356s-153 -356 -366 -356s-366 146 -366 356s153 356 366 356zM392 600c-142 0 -242 -104 -242 -250s100 -250 242 -250s242 104 242 250s-100 250 -242 250zM224 342l134 190h145v-364h-114v75h-165v99zM389 342v83l-57 -83h57z" />
    <glyph glyph-name="uni2784" unicode="&#x2784;" horiz-adv-x="784" 
d="M392 706c213 0 366 -146 366 -356s-153 -356 -366 -356s-366 146 -366 356s153 356 366 356zM392 600c-142 0 -242 -104 -242 -250s100 -250 242 -250s242 104 242 250s-100 250 -242 250zM261 532h255v-97h-163l-3 -40c16 12 36 20 62 20c73 0 121 -48 121 -121
c0 -79 -60 -132 -145 -132c-81 0 -136 49 -142 121h112c4 -12 15 -21 31 -21s29 12 29 32c0 19 -13 32 -30 32c-14 0 -23 -8 -28 -18h-109z" />
    <glyph glyph-name="uni2785" unicode="&#x2785;" horiz-adv-x="784" 
d="M392 706c213 0 366 -146 366 -356s-153 -356 -366 -356s-366 146 -366 356s153 356 366 356zM392 600c-142 0 -242 -104 -242 -250s100 -250 242 -250s242 104 242 250s-100 250 -242 250zM230 345c0 117 67 193 165 193c71 0 130 -43 141 -115h-110c-3 16 -18 29 -40 29
c-34 0 -52 -38 -52 -71v-10c15 23 37 37 75 37c78 0 130 -49 130 -122c0 -75 -59 -124 -148 -124c-97 0 -161 72 -161 183zM428 286c0 21 -15 35 -37 35s-36 -14 -36 -35s14 -35 36 -35s37 14 37 35z" />
    <glyph glyph-name="uni2786" unicode="&#x2786;" horiz-adv-x="784" 
d="M392 706c213 0 366 -146 366 -356s-153 -356 -366 -356s-366 146 -366 356s153 356 366 356zM392 600c-142 0 -242 -104 -242 -250s100 -250 242 -250s242 104 242 250s-100 250 -242 250zM255 434v98h279v-91l-126 -273h-127l126 266h-152z" />
    <glyph glyph-name="uni2786.ss09" horiz-adv-x="784" 
d="M392 706c213 0 366 -146 366 -356s-153 -356 -366 -356s-366 146 -366 356s153 356 366 356zM392 600c-142 0 -242 -104 -242 -250s100 -250 242 -250s242 104 242 250s-100 250 -242 250zM247 532h297v-91l-126 -273h-127l126 266h-67v-47h-103v145z" />
    <glyph glyph-name="uni2787" unicode="&#x2787;" horiz-adv-x="784" 
d="M392 706c213 0 366 -146 366 -356s-153 -356 -366 -356s-366 146 -366 356s153 356 366 356zM392 600c-142 0 -242 -104 -242 -250s100 -250 242 -250s242 104 242 250s-100 250 -242 250zM231 272c0 40 21 72 73 88c-40 19 -60 40 -60 82c0 55 53 96 148 96
s147 -41 147 -96c0 -44 -22 -64 -60 -82c52 -16 72 -47 72 -88c0 -64 -57 -110 -159 -110s-161 46 -161 110zM429 427c0 18 -15 30 -37 30s-38 -12 -38 -30s16 -31 38 -31s37 13 37 31zM433 283c0 20 -17 34 -41 34c-25 0 -42 -14 -42 -34s17 -34 42 -34c24 0 41 14 41 34z
" />
    <glyph glyph-name="uni2788" unicode="&#x2788;" horiz-adv-x="784" 
d="M392 706c213 0 366 -146 366 -356s-153 -356 -366 -356s-366 146 -366 356s153 356 366 356zM392 600c-142 0 -242 -104 -242 -250s100 -250 242 -250s242 104 242 250s-100 250 -242 250zM556 355c0 -117 -67 -193 -165 -193c-71 0 -130 43 -141 115h110
c3 -16 18 -29 40 -29c34 0 52 32 52 71v10c-16 -24 -37 -37 -75 -37c-78 0 -130 49 -130 122c0 75 59 124 148 124c97 0 161 -72 161 -183zM358 414c0 -21 15 -35 37 -35s36 14 36 35s-14 35 -36 35s-37 -14 -37 -35z" />
    <glyph glyph-name="u1F10C" unicode="&#x1f10c;" horiz-adv-x="784" 
d="M392 706c-213 0 -366 -146 -366 -356s153 -356 366 -356s366 146 366 356s-153 356 -366 356zM230 350c0 118 60 188 162 188s162 -70 162 -188s-60 -188 -162 -188s-162 70 -162 188zM437 350c0 57 -16 88 -45 88s-45 -31 -45 -88c0 -58 16 -88 45 -88s45 30 45 88z" />
    <glyph glyph-name="u1F10C.zero" horiz-adv-x="784" 
d="M392 706c-213 0 -366 -146 -366 -356s153 -356 366 -356s366 146 366 356s-153 356 -366 356zM392 538c102 0 162 -70 162 -188s-60 -188 -162 -188s-162 70 -162 188s60 188 162 188zM392 441c-29 0 -48 -31 -48 -91c0 -9 0 -17 1 -25l77 100c-8 11 -18 16 -30 16z
M392 259c29 0 48 30 48 91c0 9 0 17 -1 24l-77 -100c8 -10 18 -15 30 -15z" />
    <glyph glyph-name="uni278A" unicode="&#x278a;" horiz-adv-x="784" 
d="M392 706c-213 0 -366 -146 -366 -356s153 -356 366 -356s366 146 366 356s-153 356 -366 356zM346 511v21h111v-363l-114 -1v201h-18h-61v102h53c19 0 29 19 29 40z" />
    <glyph glyph-name="uni278A.ss09" horiz-adv-x="784" 
d="M392 706c-213 0 -366 -146 -366 -356s153 -356 366 -356s366 146 366 356s-153 356 -366 356zM457 532v-261h71v-103h-264v102h79v99h-18h-61v102h53c19 0 29 19 29 40v21h111z" />
    <glyph glyph-name="uni278B" unicode="&#x278b;" horiz-adv-x="784" 
d="M392 706c-213 0 -366 -146 -366 -356s153 -356 366 -356s366 146 366 356s-153 356 -366 356zM349 387h-115v6c0 88 67 145 150 145c91 0 155 -51 155 -128c0 -54 -31 -83 -64 -104l-56 -36h125v-102h-302v96l144 93c17 11 33 27 33 50c0 19 -14 31 -33 31
c-23 0 -37 -16 -37 -49v-2z" />
    <glyph glyph-name="uni278C" unicode="&#x278c;" horiz-adv-x="784" 
d="M392 706c-213 0 -366 -146 -366 -356s153 -356 366 -356s366 146 366 356s-153 356 -366 356zM354 410h-114c2 80 59 128 153 128c93 0 143 -44 143 -101c0 -43 -29 -69 -62 -79c46 -9 73 -39 73 -82c0 -71 -58 -114 -161 -114s-156 47 -158 135h117c2 -23 12 -40 39 -40
c21 0 39 12 39 31c0 17 -12 30 -40 30h-21v69h20c22 0 38 10 38 28c0 17 -12 28 -32 28c-22 0 -32 -14 -34 -33z" />
    <glyph glyph-name="uni278D" unicode="&#x278d;" horiz-adv-x="784" 
d="M392 706c-213 0 -366 -146 -366 -356s153 -356 366 -356s366 146 366 356s-153 356 -366 356zM214 340l134 192h145v-197h51v-94h-51v-73h-114v73h-165v99zM379 335v97l-63 -97h63z" />
    <glyph glyph-name="uni278D.ss10" horiz-adv-x="784" 
d="M392 706c-213 0 -366 -146 -366 -356s153 -356 366 -356s366 146 366 356s-153 356 -366 356zM224 342l134 190h145v-364h-114v75h-165v99zM389 342v83l-57 -83h57z" />
    <glyph glyph-name="uni278E" unicode="&#x278e;" horiz-adv-x="784" 
d="M392 706c-213 0 -366 -146 -366 -356s153 -356 366 -356s366 146 366 356s-153 356 -366 356zM261 532h255v-97h-163l-3 -40c16 12 36 20 62 20c73 0 121 -48 121 -121c0 -79 -60 -132 -145 -132c-81 0 -136 49 -142 121h112c4 -12 15 -21 31 -21s29 12 29 32
c0 19 -13 32 -30 32c-14 0 -23 -8 -28 -18h-109z" />
    <glyph glyph-name="uni278F" unicode="&#x278f;" horiz-adv-x="784" 
d="M392 706c-213 0 -366 -146 -366 -356s153 -356 366 -356s366 146 366 356s-153 356 -366 356zM230 345c0 117 67 193 165 193c71 0 130 -43 141 -115h-110c-3 16 -18 29 -40 29c-34 0 -52 -38 -52 -71v-10c15 23 37 37 75 37c78 0 130 -49 130 -122
c0 -75 -59 -124 -148 -124c-97 0 -161 72 -161 183zM428 286c0 21 -15 35 -37 35s-36 -14 -36 -35s14 -35 36 -35s37 14 37 35z" />
    <glyph glyph-name="uni2790" unicode="&#x2790;" horiz-adv-x="784" 
d="M392 706c-213 0 -366 -146 -366 -356s153 -356 366 -356s366 146 366 356s-153 356 -366 356zM255 434v98h279v-91l-126 -273h-127l126 266h-152z" />
    <glyph glyph-name="uni2790.ss09" horiz-adv-x="784" 
d="M392 706c-213 0 -366 -146 -366 -356s153 -356 366 -356s366 146 366 356s-153 356 -366 356zM247 532h297v-91l-126 -273h-127l126 266h-67v-47h-103v145z" />
    <glyph glyph-name="uni2791" unicode="&#x2791;" horiz-adv-x="784" 
d="M392 706c-213 0 -366 -146 -366 -356s153 -356 366 -356s366 146 366 356s-153 356 -366 356zM231 272c0 40 21 72 73 88c-40 19 -60 40 -60 82c0 55 53 96 148 96s147 -41 147 -96c0 -44 -22 -64 -60 -82c52 -16 72 -47 72 -88c0 -64 -57 -110 -159 -110
s-161 46 -161 110zM429 427c0 18 -15 30 -37 30s-38 -12 -38 -30s16 -31 38 -31s37 13 37 31zM433 283c0 20 -17 34 -41 34c-25 0 -42 -14 -42 -34s17 -34 42 -34c24 0 41 14 41 34z" />
    <glyph glyph-name="uni2792" unicode="&#x2792;" horiz-adv-x="784" 
d="M392 706c-213 0 -366 -146 -366 -356s153 -356 366 -356s366 146 366 356s-153 356 -366 356zM556 355c0 -117 -67 -193 -165 -193c-71 0 -130 43 -141 115h110c3 -16 18 -29 40 -29c34 0 52 32 52 71v10c-16 -24 -37 -37 -75 -37c-78 0 -130 49 -130 122
c0 75 59 124 148 124c97 0 161 -72 161 -183zM358 414c0 -21 15 -35 37 -35s36 14 36 35s-14 35 -36 35s-37 -14 -37 -35z" />
    <glyph glyph-name="zero" unicode="0" horiz-adv-x="658" 
d="M28 334v32c0 214 125 340 301 340s301 -126 301 -340v-32c0 -215 -125 -340 -301 -340s-301 125 -301 340zM454 340v20c0 132 -52 200 -125 200s-125 -68 -125 -200v-20c0 -133 52 -200 125 -200s125 67 125 200z" />
    <glyph glyph-name="zero.zero" horiz-adv-x="658" 
d="M329 706c176 0 301 -126 301 -340v-32c0 -215 -125 -340 -301 -340s-301 125 -301 340v32c0 214 125 340 301 340zM200 360v-20c0 -16 1 -30 2 -44l221 217c-23 35 -56 53 -94 53c-75 0 -129 -70 -129 -206zM458 340v20c0 16 -1 31 -2 46l-221 -219c23 -35 56 -53 94 -53
c75 0 129 69 129 206z" />
    <glyph glyph-name="one" unicode="1" horiz-adv-x="393" 
d="M165 642v58h173v-700h-176v427h-33h-119v143h99c43 0 56 28 56 72z" />
    <glyph glyph-name="one.ss09" horiz-adv-x="488" 
d="M344 700v-555h129v-145h-448v145h143v276h-33h-104v143h84c38 0 56 36 56 76v60h173z" />
    <glyph glyph-name="two" unicode="2" horiz-adv-x="577" 
d="M21 0v133l262 211c59 47 88 83 88 129c0 58 -37 87 -85 87c-54 0 -93 -39 -93 -103v-10h-178v20c0 133 103 239 272 239c171 0 262 -93 262 -226c0 -102 -51 -163 -141 -234l-128 -101h272v-145h-531z" />
    <glyph glyph-name="three" unicode="3" horiz-adv-x="593" 
d="M428 364c78 -16 136 -64 136 -164c0 -122 -106 -206 -278 -206c-173 0 -281 84 -281 240h175c2 -72 50 -106 114 -106c50 0 91 29 91 83c0 45 -31 74 -96 74h-75v138h65c63 0 95 31 95 78c0 49 -40 71 -85 71c-54 0 -99 -36 -102 -93h-171c2 136 114 227 275 227
c165 0 260 -74 260 -191c0 -82 -54 -132 -123 -151z" />
    <glyph glyph-name="four" unicode="4" horiz-adv-x="618" 
d="M10 139v143l287 418h219v-418h89v-143h-89v-139h-172v139h-334zM344 535l-172 -253h172v253z" />
    <glyph glyph-name="four.ss10" horiz-adv-x="588" 
d="M10 287l297 413h226v-700h-176v140h-347v147zM357 287v247l-181 -247h181z" />
    <glyph glyph-name="five" unicode="5" horiz-adv-x="602" 
d="M344 481c132 0 238 -97 238 -242c0 -164 -124 -245 -276 -245c-166 0 -271 103 -276 235h175c7 -54 48 -95 101 -95c49 0 99 35 99 105c0 61 -39 107 -99 107c-34 0 -80 -15 -96 -62h-171l18 416h483v-145h-322l-5 -119c31 26 71 45 131 45z" />
    <glyph glyph-name="six" unicode="6" horiz-adv-x="621" 
d="M97 100c-44 59 -69 141 -69 241c0 242 119 365 301 365c132 0 244 -74 260 -209h-173c-12 49 -52 71 -102 71c-73 0 -116 -52 -116 -165v-8c4 5 7 9 11 13c33 40 89 64 148 64c143 0 239 -99 239 -239c0 -146 -109 -239 -271 -239c-98 0 -176 38 -228 106zM420 233
c0 61 -38 107 -95 107s-97 -45 -97 -106s39 -106 96 -106s96 45 96 105z" />
    <glyph glyph-name="seven" unicode="7" horiz-adv-x="543" 
d="M10 554v146h523v-111l-288 -589h-191l285 554h-329z" />
    <glyph glyph-name="seven.ss09" horiz-adv-x="564" 
d="M554 700v-111l-273 -589h-182l271 554h-205v-93h-148v239h537z" />
    <glyph glyph-name="eight" unicode="8" horiz-adv-x="606" 
d="M449 369c68 -16 135 -69 135 -170c0 -124 -99 -205 -281 -205c-183 0 -281 81 -281 205c0 100 67 152 136 169c-60 18 -119 64 -119 153c0 107 98 185 264 185s264 -78 264 -185c0 -82 -58 -134 -118 -152zM303 587c-53 0 -88 -32 -88 -76c0 -46 35 -78 88 -78
c54 0 88 32 88 78c0 44 -34 76 -88 76zM303 112c61 0 102 40 102 92c0 53 -41 94 -102 94s-102 -41 -102 -94c0 -52 41 -92 102 -92z" />
    <glyph glyph-name="nine" unicode="9" horiz-adv-x="621" 
d="M292 -6c-153 0 -249 73 -265 209h173c11 -47 49 -71 102 -71c78 0 118 57 118 165v10c-7 -9 -13 -16 -21 -24c-35 -35 -83 -51 -135 -51c-143 0 -239 92 -239 234s109 240 271 240c92 0 166 -33 218 -94c51 -60 79 -145 79 -252c0 -238 -105 -366 -301 -366zM296 364
c57 0 97 44 97 104s-39 104 -96 104s-96 -44 -96 -103c0 -60 38 -105 95 -105z" />
    <glyph glyph-name="zero.osf" horiz-adv-x="624" 
d="M312 -6c-169 0 -288 109 -288 264s119 264 288 264s288 -109 288 -264s-119 -264 -288 -264zM312 137c66 0 112 50 112 121s-46 121 -112 121s-112 -50 -112 -121s46 -121 112 -121z" />
    <glyph glyph-name="zero.osf.zero" horiz-adv-x="624" 
d="M312 522c169 0 288 -109 288 -264s-119 -264 -288 -264s-288 109 -288 264s119 264 288 264zM312 384c-69 0 -116 -52 -116 -126c0 -18 3 -35 8 -50l160 165c-16 7 -33 11 -52 11zM312 132c69 0 116 52 116 126c0 18 -3 36 -8 51l-159 -166c15 -7 32 -11 51 -11z" />
    <glyph glyph-name="one.osf" horiz-adv-x="365" 
d="M10 279v140h85c38 0 56 34 56 74v23h169v-516h-173v279h-53h-84z" />
    <glyph glyph-name="one.osf.ss09" horiz-adv-x="446" 
d="M323 516v-373h113v-143h-416v143h130v136h-53h-74v140h75c38 0 56 34 56 74v23h169z" />
    <glyph glyph-name="two.osf" horiz-adv-x="530" 
d="M393 181l-105 -46h217v-135h-481v127l217 108c55 27 89 53 89 90s-27 60 -70 60c-48 0 -76 -29 -76 -82h-169c0 138 100 219 249 219c146 0 242 -79 242 -193c0 -60 -45 -118 -113 -148z" />
    <glyph glyph-name="three.osf" horiz-adv-x="584" 
d="M439 180c70 -20 121 -69 121 -162c0 -123 -107 -204 -274 -204c-183 0 -271 88 -271 246h173c2 -75 37 -114 101 -114c56 0 94 33 94 82c0 46 -29 77 -92 77h-66v134h55c60 0 92 31 91 75c-1 51 -31 76 -83 76c-49 0 -88 -35 -91 -95h-169c2 135 103 227 265 227
c161 0 254 -74 254 -188c0 -81 -43 -131 -108 -154z" />
    <glyph glyph-name="four.osf" horiz-adv-x="595" 
d="M15 142l277 374h215v-374h78v-142h-78v-180h-165v180h-327v142zM342 142v216l-155 -216h155z" />
    <glyph glyph-name="four.osf.ss10" horiz-adv-x="562" 
d="M15 142l287 374h215v-696h-165v180h-337v142zM352 142v218l-161 -218h161z" />
    <glyph glyph-name="five.osf" horiz-adv-x="582" 
d="M333 290c130 0 229 -87 229 -236c0 -155 -124 -240 -268 -240c-164 0 -260 97 -266 223h175c6 -48 41 -85 92 -85c54 0 90 40 90 100s-36 100 -90 100c-39 0 -67 -19 -87 -60h-171l18 424h465v-145h-315l-5 -124c39 32 81 43 133 43z" />
    <glyph glyph-name="six.osf" horiz-adv-x="602" 
d="M308 -6c-90 0 -160 34 -213 96c-47 56 -71 148 -71 248c0 231 112 356 294 356c149 0 242 -73 258 -206h-173c-15 43 -46 68 -94 68c-76 0 -116 -55 -116 -154v-10c3 4 7 8 10 12c40 40 83 52 141 52c140 0 234 -94 234 -230c0 -140 -118 -232 -270 -232zM311 128
c54 0 91 42 91 97c0 56 -36 99 -90 99s-92 -42 -92 -98s37 -98 91 -98z" />
    <glyph glyph-name="seven.osf" horiz-adv-x="549" 
d="M15 372v144h514v-136l-280 -560h-191l279 552h-322z" />
    <glyph glyph-name="seven.osf.ss09" horiz-adv-x="572" 
d="M25 277v239h527v-136l-280 -560h-191l279 552h-185v-95h-150z" />
    <glyph glyph-name="eight.osf" horiz-adv-x="598" 
d="M436 360c71 -18 138 -66 138 -172c0 -114 -95 -194 -275 -194c-181 0 -275 80 -275 194c0 104 66 152 137 171c-60 19 -117 66 -117 153c0 108 93 182 255 182s255 -74 255 -182c0 -81 -57 -134 -118 -152zM299 579c-49 0 -82 -30 -82 -75c0 -46 33 -77 82 -77
s82 31 82 77c0 45 -33 75 -82 75zM299 112c57 0 99 38 99 91c0 54 -42 93 -99 93s-99 -39 -99 -93c0 -53 42 -91 99 -91z" />
    <glyph glyph-name="nine.osf" horiz-adv-x="602" 
d="M284 -186c-149 0 -242 74 -258 207h173c15 -44 46 -69 94 -69c76 0 116 59 116 162v10c-4 -5 -8 -10 -13 -15c-37 -37 -87 -49 -138 -49c-140 0 -234 94 -234 230c0 140 118 232 270 232c90 0 160 -34 213 -96c47 -56 71 -148 71 -248c0 -235 -112 -364 -294 -364z
M290 192c54 0 92 42 92 98s-37 98 -91 98s-91 -42 -91 -97c0 -56 36 -99 90 -99z" />
    <glyph glyph-name="zero.tf" horiz-adv-x="600" 
d="M19 334v32c0 199 105 340 281 340s281 -141 281 -340v-32c0 -199 -105 -340 -281 -340s-281 141 -281 340zM405 340v20c0 119 -32 203 -105 203s-105 -84 -105 -203v-20c0 -119 32 -203 105 -203s105 84 105 203z" />
    <glyph glyph-name="zero.tf.zero" horiz-adv-x="600" 
d="M300 706c176 0 281 -141 281 -340v-32c0 -199 -105 -340 -281 -340s-281 141 -281 340v32c0 199 105 340 281 340zM191 360v-20c0 -13 0 -26 1 -38l195 201c-18 43 -46 69 -87 69c-76 0 -109 -88 -109 -212zM409 340v20c0 13 0 26 -1 38l-195 -203c18 -42 46 -67 87 -67
c76 0 109 88 109 212z" />
    <glyph glyph-name="one.tf" horiz-adv-x="600" 
d="M400 700v-555h156v-145h-488v145h156v276h-33h-119v143h99c38 0 56 36 56 76v60h173z" />
    <glyph glyph-name="two.tf" horiz-adv-x="582" 
d="M25 0v133l262 211c59 47 88 83 88 129c0 58 -37 87 -85 87c-54 0 -93 -39 -93 -103v-10h-178v20c0 133 103 239 272 239c171 0 262 -93 262 -226c0 -102 -51 -163 -141 -234l-128 -101h272v-145h-531z" />
    <glyph glyph-name="three.tf" horiz-adv-x="616" 
d="M438 364c78 -16 136 -64 136 -164c0 -122 -106 -206 -278 -206c-173 0 -281 84 -281 240h175c2 -72 50 -106 114 -106c50 0 91 29 91 83c0 45 -31 74 -96 74h-75v138h65c63 0 95 31 95 78c0 49 -40 71 -85 71c-54 0 -99 -36 -102 -93h-171c2 136 114 227 275 227
c165 0 260 -74 260 -191c0 -82 -54 -132 -123 -151z" />
    <glyph glyph-name="four.tf" horiz-adv-x="635" 
d="M18 139v143l287 418h219v-418h89v-143h-89v-139h-172v139h-334zM352 535l-172 -253h172v253z" />
    <glyph glyph-name="four.tf.ss10" horiz-adv-x="600" 
d="M20 287l297 413h226v-700h-176v140h-347v147zM367 287v247l-181 -247h181z" />
    <glyph glyph-name="five.tf" horiz-adv-x="602" 
d="M342 481c132 0 238 -97 238 -242c0 -164 -124 -245 -276 -245c-166 0 -271 103 -276 235h175c7 -54 48 -95 101 -95c49 0 99 35 99 105c0 61 -39 107 -99 107c-34 0 -80 -15 -96 -62h-171l18 416h483v-145h-322l-5 -119c31 26 71 45 131 45z" />
    <glyph glyph-name="six.tf" horiz-adv-x="624" 
d="M99 100c-44 59 -69 141 -69 241c0 242 119 365 301 365c132 0 244 -74 260 -209h-173c-12 49 -52 71 -102 71c-73 0 -116 -52 -116 -165v-8c4 5 7 9 11 13c33 40 89 64 148 64c143 0 239 -99 239 -239c0 -146 -109 -239 -271 -239c-98 0 -176 38 -228 106zM422 233
c0 61 -38 107 -95 107s-97 -45 -97 -106s39 -106 96 -106s96 45 96 105z" />
    <glyph glyph-name="seven.tf" horiz-adv-x="553" 
d="M6 554v146h523v-111l-288 -589h-191l285 554h-329z" />
    <glyph glyph-name="seven.tf.ss09" horiz-adv-x="554" 
d="M547 700v-111l-273 -589h-182l271 554h-205v-93h-148v239h537z" />
    <glyph glyph-name="eight.tf" horiz-adv-x="612" 
d="M452 369c68 -16 135 -69 135 -170c0 -124 -99 -205 -281 -205c-183 0 -281 81 -281 205c0 100 67 152 136 169c-60 18 -119 64 -119 153c0 107 98 185 264 185s264 -78 264 -185c0 -82 -58 -134 -118 -152zM306 587c-53 0 -88 -32 -88 -76c0 -46 35 -78 88 -78
c54 0 88 32 88 78c0 44 -34 76 -88 76zM306 112c61 0 102 40 102 92c0 53 -41 94 -102 94s-102 -41 -102 -94c0 -52 41 -92 102 -92z" />
    <glyph glyph-name="nine.tf" horiz-adv-x="624" 
d="M293 -6c-153 0 -249 73 -265 209h173c11 -47 49 -71 102 -71c78 0 118 57 118 165v10c-7 -9 -13 -16 -21 -24c-35 -35 -83 -51 -135 -51c-143 0 -239 92 -239 234s109 240 271 240c92 0 166 -33 218 -94c51 -60 79 -145 79 -252c0 -238 -105 -366 -301 -366zM297 364
c57 0 97 44 97 104s-39 104 -96 104s-96 -44 -96 -103c0 -60 38 -105 95 -105z" />
    <glyph glyph-name="zero.tosf" horiz-adv-x="600" 
d="M300 -6c-164 0 -279 109 -279 264s115 264 279 264s279 -109 279 -264s-115 -264 -279 -264zM300 137c62 0 103 50 103 121s-41 121 -103 121c-61 0 -103 -50 -103 -121s42 -121 103 -121z" />
    <glyph glyph-name="zero.tosf.zero" horiz-adv-x="600" 
d="M300 522c164 0 279 -109 279 -264s-115 -264 -279 -264s-279 109 -279 264s115 264 279 264zM300 384c-63 0 -107 -52 -107 -126c0 -16 2 -31 6 -44l152 157c-15 8 -32 13 -51 13zM300 132c64 0 107 52 107 126c0 16 -2 31 -6 44l-151 -157c15 -9 32 -13 50 -13z" />
    <glyph glyph-name="one.tosf" horiz-adv-x="600" 
d="M420 516v-373h153v-143h-486v143h160v136h-53h-104v140h105c38 0 56 34 56 74v23h169z" />
    <glyph glyph-name="two.tosf" horiz-adv-x="600" 
d="M434 181l-105 -46h217v-135h-481v127l217 108c55 27 89 53 89 90s-27 60 -70 60c-48 0 -76 -29 -76 -82h-169c0 138 100 219 249 219c146 0 242 -79 242 -193c0 -60 -45 -118 -113 -148z" />
    <glyph glyph-name="three.tosf" horiz-adv-x="600" 
d="M433 181c78 -16 136 -64 136 -164c0 -122 -106 -206 -278 -206c-173 0 -281 84 -281 240h175c2 -72 50 -106 114 -106c50 0 91 29 91 83c0 45 -31 74 -96 74h-75v138h65c63 0 95 31 95 78c0 49 -40 71 -85 71c-54 0 -99 -36 -102 -93h-171c2 136 114 227 275 227
c165 0 260 -74 260 -191c0 -82 -54 -132 -123 -151z" />
    <glyph glyph-name="four.tosf" horiz-adv-x="600" 
d="M15 142l277 374h215v-374h78v-142h-78v-180h-165v180h-327v142zM342 142v216l-155 -216h155z" />
    <glyph glyph-name="four.tosf.ss10" horiz-adv-x="600" 
d="M20 103l297 413h226v-700h-176v140h-347v147zM367 103v247l-181 -247h181z" />
    <glyph glyph-name="five.tosf" horiz-adv-x="600" 
d="M347 290c130 0 229 -87 229 -236c0 -155 -124 -240 -268 -240c-164 0 -260 97 -266 223h175c6 -48 41 -85 92 -85c54 0 90 40 90 100s-36 100 -90 100c-39 0 -67 -19 -87 -60h-171l18 424h465v-145h-315l-5 -124c39 32 81 43 133 43z" />
    <glyph glyph-name="six.tosf" horiz-adv-x="600" 
d="M307 -6c-90 0 -160 34 -213 96c-47 56 -71 148 -71 248c0 231 112 356 294 356c149 0 242 -73 258 -206h-173c-15 43 -46 68 -94 68c-76 0 -116 -55 -116 -154v-10c3 4 7 8 10 12c40 40 83 52 141 52c140 0 234 -94 234 -230c0 -140 -118 -232 -270 -232zM310 128
c54 0 91 42 91 97c0 56 -36 99 -90 99s-92 -42 -92 -98s37 -98 91 -98z" />
    <glyph glyph-name="seven.tosf" horiz-adv-x="600" 
d="M33 372v144h514v-136l-280 -560h-191l279 552h-322z" />
    <glyph glyph-name="seven.tosf.ss09" horiz-adv-x="565" 
d="M23 277v239h527v-136l-280 -560h-191l279 552h-185v-95h-150z" />
    <glyph glyph-name="eight.tosf" horiz-adv-x="600" 
d="M437 360c71 -18 138 -66 138 -172c0 -114 -95 -194 -275 -194c-181 0 -275 80 -275 194c0 104 66 152 137 171c-60 19 -117 66 -117 153c0 108 93 182 255 182s255 -74 255 -182c0 -81 -57 -134 -118 -152zM300 579c-49 0 -82 -30 -82 -75c0 -46 33 -77 82 -77
s82 31 82 77c0 45 -33 75 -82 75zM300 112c57 0 99 38 99 91c0 54 -42 93 -99 93s-99 -39 -99 -93c0 -53 42 -91 99 -91z" />
    <glyph glyph-name="nine.tosf" horiz-adv-x="600" 
d="M283 -186c-149 0 -242 74 -258 207h173c15 -44 46 -69 94 -69c76 0 116 59 116 162v10c-4 -5 -8 -10 -13 -15c-37 -37 -87 -49 -138 -49c-140 0 -234 94 -234 230c0 140 118 232 270 232c90 0 160 -34 213 -96c47 -56 71 -148 71 -248c0 -235 -112 -364 -294 -364z
M289 192c54 0 92 42 92 98s-37 98 -91 98s-91 -42 -91 -97c0 -56 36 -99 90 -99z" />
    <glyph glyph-name="uni2080" unicode="&#x2080;" horiz-adv-x="352" 
d="M14 82c0 118 60 188 162 188s162 -70 162 -188s-60 -188 -162 -188s-162 70 -162 188zM221 82c0 57 -16 88 -45 88s-45 -31 -45 -88c0 -58 16 -88 45 -88s45 30 45 88z" />
    <glyph glyph-name="uni2080.zero" horiz-adv-x="352" 
d="M176 270c102 0 162 -70 162 -188s-60 -188 -162 -188s-162 70 -162 188s60 188 162 188zM176 173c-29 0 -48 -31 -48 -91c0 -9 0 -17 1 -25l77 100c-8 11 -18 16 -30 16zM176 -9c29 0 48 30 48 91c0 9 0 17 -1 24l-77 -100c8 -10 18 -15 30 -15z" />
    <glyph glyph-name="uni2081" unicode="&#x2081;" horiz-adv-x="234" 
d="M82 243v21h111v-363l-114 -1v201h-18h-61v102h53c19 0 29 19 29 40z" />
    <glyph glyph-name="uni2081.ss09" horiz-adv-x="264" 
d="M193 264v-261h71v-103h-264v102h79v99h-18h-61v102h53c19 0 29 19 29 40v21h111z" />
    <glyph glyph-name="uni2082" unicode="&#x2082;" horiz-adv-x="333" 
d="M125 119h-115v6c0 88 67 145 150 145c91 0 155 -51 155 -128c0 -54 -31 -83 -64 -104l-56 -36h125v-102h-302v96l144 93c17 11 33 27 33 50c0 19 -14 31 -33 31c-23 0 -37 -16 -37 -49v-2z" />
    <glyph glyph-name="uni2083" unicode="&#x2083;" horiz-adv-x="342" 
d="M136 142h-114c2 80 59 128 153 128c93 0 143 -44 143 -101c0 -43 -29 -69 -62 -79c46 -9 73 -39 73 -82c0 -71 -58 -114 -161 -114s-156 47 -158 135h117c2 -23 12 -40 39 -40c21 0 39 12 39 31c0 17 -12 30 -40 30h-21v69h20c22 0 38 10 38 28c0 17 -12 28 -32 28
c-22 0 -32 -14 -34 -33z" />
    <glyph glyph-name="uni2084" unicode="&#x2084;" horiz-adv-x="360" 
d="M15 72l134 192h145v-197h51v-94h-51v-73h-114v73h-165v99zM180 67v97l-63 -97h63z" />
    <glyph glyph-name="uni2084.ss10" horiz-adv-x="335" 
d="M15 74l134 190h145v-364h-114v75h-165v99zM180 74v83l-57 -83h57z" />
    <glyph glyph-name="uni2085" unicode="&#x2085;" horiz-adv-x="320" 
d="M33 264h255v-97h-163l-3 -40c16 12 36 20 62 20c73 0 121 -48 121 -121c0 -79 -60 -132 -145 -132c-81 0 -136 49 -142 121h112c4 -12 15 -21 31 -21s29 12 29 32c0 19 -13 32 -30 32c-14 0 -23 -8 -28 -18h-109z" />
    <glyph glyph-name="uni2086" unicode="&#x2086;" horiz-adv-x="335" 
d="M13 77c0 117 67 193 165 193c71 0 130 -43 141 -115h-110c-3 16 -18 29 -40 29c-34 0 -52 -38 -52 -71v-10c15 23 37 37 75 37c78 0 130 -49 130 -122c0 -75 -59 -124 -148 -124c-97 0 -161 72 -161 183zM211 18c0 21 -15 35 -37 35s-36 -14 -36 -35s14 -35 36 -35
s37 14 37 35z" />
    <glyph glyph-name="uni2087" unicode="&#x2087;" horiz-adv-x="285" 
d="M0 166v98h279v-91l-126 -273h-127l126 266h-152z" />
    <glyph glyph-name="uni2087.ss09" horiz-adv-x="318" 
d="M15 264h297v-91l-126 -273h-127l126 266h-67v-47h-103v145z" />
    <glyph glyph-name="uni2088" unicode="&#x2088;" horiz-adv-x="346" 
d="M13 4c0 40 21 72 73 88c-40 19 -60 40 -60 82c0 55 53 96 148 96s147 -41 147 -96c0 -44 -22 -64 -60 -82c52 -16 72 -47 72 -88c0 -64 -57 -110 -159 -110s-161 46 -161 110zM211 159c0 18 -15 30 -37 30s-38 -12 -38 -30s16 -31 38 -31s37 13 37 31zM215 15
c0 20 -17 34 -41 34c-25 0 -42 -14 -42 -34s17 -34 42 -34c24 0 41 14 41 34z" />
    <glyph glyph-name="uni2089" unicode="&#x2089;" horiz-adv-x="335" 
d="M322 87c0 -117 -67 -193 -165 -193c-71 0 -130 43 -141 115h110c3 -16 18 -29 40 -29c34 0 52 32 52 71v10c-16 -24 -37 -37 -75 -37c-78 0 -130 49 -130 122c0 75 59 124 148 124c97 0 161 -72 161 -183zM124 146c0 -21 15 -35 37 -35s36 14 36 35s-14 35 -36 35
s-37 -14 -37 -35z" />
    <glyph glyph-name="zero.dnom" horiz-adv-x="352" 
d="M14 182c0 118 60 188 162 188s162 -70 162 -188s-60 -188 -162 -188s-162 70 -162 188zM221 182c0 57 -16 88 -45 88s-45 -31 -45 -88c0 -58 16 -88 45 -88s45 30 45 88z" />
    <glyph glyph-name="zero.dnom.zero" horiz-adv-x="352" 
d="M176 370c102 0 162 -70 162 -188s-60 -188 -162 -188s-162 70 -162 188s60 188 162 188zM176 273c-29 0 -48 -31 -48 -91c0 -9 0 -17 1 -25l77 100c-8 11 -18 16 -30 16zM176 91c29 0 48 30 48 91c0 9 0 17 -1 24l-77 -100c8 -10 18 -15 30 -15z" />
    <glyph glyph-name="one.dnom" horiz-adv-x="234" 
d="M82 343v21h111v-363l-114 -1v201h-18h-61v102h53c19 0 29 19 29 40z" />
    <glyph glyph-name="one.dnom.ss09" horiz-adv-x="264" 
d="M193 364v-261h71v-103h-264v102h79v99h-18h-61v102h53c19 0 29 19 29 40v21h111z" />
    <glyph glyph-name="two.dnom" horiz-adv-x="333" 
d="M125 219h-115v6c0 88 67 145 150 145c91 0 155 -51 155 -128c0 -54 -31 -83 -64 -104l-56 -36h125v-102h-302v96l144 93c17 11 33 27 33 50c0 19 -14 31 -33 31c-23 0 -37 -16 -37 -49v-2z" />
    <glyph glyph-name="three.dnom" horiz-adv-x="342" 
d="M136 242h-114c2 80 59 128 153 128c93 0 143 -44 143 -101c0 -43 -29 -69 -62 -79c46 -9 73 -39 73 -82c0 -71 -58 -114 -161 -114s-156 47 -158 135h117c2 -23 12 -40 39 -40c21 0 39 12 39 31c0 17 -12 30 -40 30h-21v69h20c22 0 38 10 38 28c0 17 -12 28 -32 28
c-22 0 -32 -14 -34 -33z" />
    <glyph glyph-name="four.dnom" horiz-adv-x="360" 
d="M15 172l134 192h145v-197h51v-94h-51v-73h-114v73h-165v99zM180 167v97l-63 -97h63z" />
    <glyph glyph-name="four.dnom.ss10" horiz-adv-x="335" 
d="M15 174l134 190h145v-364h-114v75h-165v99zM180 174v83l-57 -83h57z" />
    <glyph glyph-name="five.dnom" horiz-adv-x="320" 
d="M33 364h255v-97h-163l-3 -40c16 12 36 20 62 20c73 0 121 -48 121 -121c0 -79 -60 -132 -145 -132c-81 0 -136 49 -142 121h112c4 -12 15 -21 31 -21s29 12 29 32c0 19 -13 32 -30 32c-14 0 -23 -8 -28 -18h-109z" />
    <glyph glyph-name="six.dnom" horiz-adv-x="335" 
d="M13 177c0 117 67 193 165 193c71 0 130 -43 141 -115h-110c-3 16 -18 29 -40 29c-34 0 -52 -38 -52 -71v-10c15 23 37 37 75 37c78 0 130 -49 130 -122c0 -75 -59 -124 -148 -124c-97 0 -161 72 -161 183zM211 118c0 21 -15 35 -37 35s-36 -14 -36 -35s14 -35 36 -35
s37 14 37 35z" />
    <glyph glyph-name="seven.dnom" horiz-adv-x="285" 
d="M0 266v98h279v-91l-126 -273h-127l126 266h-152z" />
    <glyph glyph-name="seven.dnom.ss09" horiz-adv-x="318" 
d="M15 364h297v-91l-126 -273h-127l126 266h-67v-47h-103v145z" />
    <glyph glyph-name="eight.dnom" horiz-adv-x="346" 
d="M13 104c0 40 21 72 73 88c-40 19 -60 40 -60 82c0 55 53 96 148 96s147 -41 147 -96c0 -44 -22 -64 -60 -82c52 -16 72 -47 72 -88c0 -64 -57 -110 -159 -110s-161 46 -161 110zM211 259c0 18 -15 30 -37 30s-38 -12 -38 -30s16 -31 38 -31s37 13 37 31zM215 115
c0 20 -17 34 -41 34c-25 0 -42 -14 -42 -34s17 -34 42 -34c24 0 41 14 41 34z" />
    <glyph glyph-name="nine.dnom" horiz-adv-x="335" 
d="M322 187c0 -117 -67 -193 -165 -193c-71 0 -130 43 -141 115h110c3 -16 18 -29 40 -29c34 0 52 32 52 71v10c-16 -24 -37 -37 -75 -37c-78 0 -130 49 -130 122c0 75 59 124 148 124c97 0 161 -72 161 -183zM124 246c0 -21 15 -35 37 -35s36 14 36 35s-14 35 -36 35
s-37 -14 -37 -35z" />
    <glyph glyph-name="zero.numr" horiz-adv-x="352" 
d="M14 519c0 118 60 188 162 188s162 -70 162 -188s-60 -188 -162 -188s-162 70 -162 188zM221 519c0 57 -16 88 -45 88s-45 -31 -45 -88c0 -58 16 -88 45 -88s45 30 45 88z" />
    <glyph glyph-name="zero.numr.zero" horiz-adv-x="352" 
d="M176 707c102 0 162 -70 162 -188s-60 -188 -162 -188s-162 70 -162 188s60 188 162 188zM176 610c-29 0 -48 -31 -48 -91c0 -9 0 -17 1 -25l77 100c-8 11 -18 16 -30 16zM176 428c29 0 48 30 48 91c0 9 0 17 -1 24l-77 -100c8 -10 18 -15 30 -15z" />
    <glyph glyph-name="one.numr" horiz-adv-x="234" 
d="M82 679v21h111v-363l-114 -1v201h-18h-61v102h53c19 0 29 19 29 40z" />
    <glyph glyph-name="one.numr.ss09" horiz-adv-x="264" 
d="M193 700v-261h71v-103h-264v102h79v99h-18h-61v102h53c19 0 29 19 29 40v21h111z" />
    <glyph glyph-name="two.numr" horiz-adv-x="333" 
d="M125 555h-115v6c0 88 67 145 150 145c91 0 155 -51 155 -128c0 -54 -31 -83 -64 -104l-56 -36h125v-102h-302v96l144 93c17 11 33 27 33 50c0 19 -14 31 -33 31c-23 0 -37 -16 -37 -49v-2z" />
    <glyph glyph-name="three.numr" horiz-adv-x="342" 
d="M136 579h-114c2 80 59 128 153 128c93 0 143 -44 143 -101c0 -43 -29 -69 -62 -79c46 -9 73 -39 73 -82c0 -71 -58 -114 -161 -114s-156 47 -158 135h117c2 -23 12 -40 39 -40c21 0 39 12 39 31c0 17 -12 30 -40 30h-21v69h20c22 0 38 10 38 28c0 17 -12 28 -32 28
c-22 0 -32 -14 -34 -33z" />
    <glyph glyph-name="four.numr" horiz-adv-x="360" 
d="M15 508l134 192h145v-197h51v-94h-51v-73h-114v73h-165v99zM180 503v97l-63 -97h63z" />
    <glyph glyph-name="four.numr.ss10" horiz-adv-x="335" 
d="M15 510l134 190h145v-364h-114v75h-165v99zM180 510v83l-57 -83h57z" />
    <glyph glyph-name="five.numr" horiz-adv-x="320" 
d="M33 700h255v-97h-163l-3 -40c16 12 36 20 62 20c73 0 121 -48 121 -121c0 -79 -60 -132 -145 -132c-81 0 -136 49 -142 121h112c4 -12 15 -21 31 -21s29 12 29 32c0 19 -13 32 -30 32c-14 0 -23 -8 -28 -18h-109z" />
    <glyph glyph-name="six.numr" horiz-adv-x="335" 
d="M13 514c0 117 67 193 165 193c71 0 130 -43 141 -115h-110c-3 16 -18 29 -40 29c-34 0 -52 -38 -52 -71v-10c15 23 37 37 75 37c78 0 130 -49 130 -122c0 -75 -59 -124 -148 -124c-97 0 -161 72 -161 183zM211 455c0 21 -15 35 -37 35s-36 -14 -36 -35s14 -35 36 -35
s37 14 37 35z" />
    <glyph glyph-name="seven.numr" horiz-adv-x="285" 
d="M0 601v98h279v-91l-126 -273h-127l126 266h-152z" />
    <glyph glyph-name="seven.numr.ss09" horiz-adv-x="318" 
d="M15 699h297v-91l-126 -273h-127l126 266h-67v-47h-103v145z" />
    <glyph glyph-name="eight.numr" horiz-adv-x="346" 
d="M13 441c0 40 21 72 73 88c-40 19 -60 40 -60 82c0 55 53 96 148 96s147 -41 147 -96c0 -44 -22 -64 -60 -82c52 -16 72 -47 72 -88c0 -64 -57 -110 -159 -110s-161 46 -161 110zM211 596c0 18 -15 30 -37 30s-38 -12 -38 -30s16 -31 38 -31s37 13 37 31zM215 452
c0 20 -17 34 -41 34c-25 0 -42 -14 -42 -34s17 -34 42 -34c24 0 41 14 41 34z" />
    <glyph glyph-name="nine.numr" horiz-adv-x="335" 
d="M322 524c0 -117 -67 -193 -165 -193c-71 0 -130 43 -141 115h110c3 -16 18 -29 40 -29c34 0 52 32 52 71v10c-16 -24 -37 -37 -75 -37c-78 0 -130 49 -130 122c0 75 59 124 148 124c97 0 161 -72 161 -183zM124 583c0 -21 15 -35 37 -35s36 14 36 35s-14 35 -36 35
s-37 -14 -37 -35z" />
    <glyph glyph-name="uni2070" unicode="&#x2070;" horiz-adv-x="352" 
d="M14 619c0 118 60 188 162 188s162 -70 162 -188s-60 -188 -162 -188s-162 70 -162 188zM221 619c0 57 -16 88 -45 88s-45 -31 -45 -88c0 -58 16 -88 45 -88s45 30 45 88z" />
    <glyph glyph-name="uni2070.zero" horiz-adv-x="352" 
d="M176 807c102 0 162 -70 162 -188s-60 -188 -162 -188s-162 70 -162 188s60 188 162 188zM176 710c-29 0 -48 -31 -48 -91c0 -9 0 -17 1 -25l77 100c-8 11 -18 16 -30 16zM176 528c29 0 48 30 48 91c0 9 0 17 -1 24l-77 -100c8 -10 18 -15 30 -15z" />
    <glyph glyph-name="uni00B9" unicode="&#xb9;" horiz-adv-x="234" 
d="M82 779v21h111v-363l-114 -1v201h-18h-61v102h53c19 0 29 19 29 40z" />
    <glyph glyph-name="uni00B9.ss09" horiz-adv-x="264" 
d="M193 800v-261h71v-103h-264v102h79v99h-18h-61v102h53c19 0 29 19 29 40v21h111z" />
    <glyph glyph-name="uni00B2" unicode="&#xb2;" horiz-adv-x="333" 
d="M125 655h-115v6c0 88 67 145 150 145c91 0 155 -51 155 -128c0 -54 -31 -83 -64 -104l-56 -36h125v-102h-302v96l144 93c17 11 33 27 33 50c0 19 -14 31 -33 31c-23 0 -37 -16 -37 -49v-2z" />
    <glyph glyph-name="uni00B3" unicode="&#xb3;" horiz-adv-x="342" 
d="M136 679h-114c2 80 59 128 153 128c93 0 143 -44 143 -101c0 -43 -29 -69 -62 -79c46 -9 73 -39 73 -82c0 -71 -58 -114 -161 -114s-156 47 -158 135h117c2 -23 12 -40 39 -40c21 0 39 12 39 31c0 17 -12 30 -40 30h-21v69h20c22 0 38 10 38 28c0 17 -12 28 -32 28
c-22 0 -32 -14 -34 -33z" />
    <glyph glyph-name="uni2074" unicode="&#x2074;" horiz-adv-x="360" 
d="M15 608l134 192h145v-197h51v-94h-51v-73h-114v73h-165v99zM180 603v97l-63 -97h63z" />
    <glyph glyph-name="uni2074.ss10" horiz-adv-x="335" 
d="M15 609l134 190h145v-364h-114v75h-165v99zM180 609v83l-57 -83h57z" />
    <glyph glyph-name="uni2075" unicode="&#x2075;" horiz-adv-x="320" 
d="M33 800h255v-97h-163l-3 -40c16 12 36 20 62 20c73 0 121 -48 121 -121c0 -79 -60 -132 -145 -132c-81 0 -136 49 -142 121h112c4 -12 15 -21 31 -21s29 12 29 32c0 19 -13 32 -30 32c-14 0 -23 -8 -28 -18h-109z" />
    <glyph glyph-name="uni2076" unicode="&#x2076;" horiz-adv-x="335" 
d="M13 614c0 117 67 193 165 193c71 0 130 -43 141 -115h-110c-3 16 -18 29 -40 29c-34 0 -52 -38 -52 -71v-10c15 23 37 37 75 37c78 0 130 -49 130 -122c0 -75 -59 -124 -148 -124c-97 0 -161 72 -161 183zM211 555c0 21 -15 35 -37 35s-36 -14 -36 -35s14 -35 36 -35
s37 14 37 35z" />
    <glyph glyph-name="uni2077" unicode="&#x2077;" horiz-adv-x="285" 
d="M0 701v98h279v-91l-126 -273h-127l126 266h-152z" />
    <glyph glyph-name="uni2077.ss09" horiz-adv-x="318" 
d="M15 800h297v-91l-126 -273h-127l126 266h-67v-47h-103v145z" />
    <glyph glyph-name="uni2078" unicode="&#x2078;" horiz-adv-x="346" 
d="M13 541c0 40 21 72 73 88c-40 19 -60 40 -60 82c0 55 53 96 148 96s147 -41 147 -96c0 -44 -22 -64 -60 -82c52 -16 72 -47 72 -88c0 -64 -57 -110 -159 -110s-161 46 -161 110zM211 696c0 18 -15 30 -37 30s-38 -12 -38 -30s16 -31 38 -31s37 13 37 31zM215 552
c0 20 -17 34 -41 34c-25 0 -42 -14 -42 -34s17 -34 42 -34c24 0 41 14 41 34z" />
    <glyph glyph-name="uni2079" unicode="&#x2079;" horiz-adv-x="335" 
d="M322 624c0 -117 -67 -193 -165 -193c-71 0 -130 43 -141 115h110c3 -16 18 -29 40 -29c34 0 52 32 52 71v10c-16 -24 -37 -37 -75 -37c-78 0 -130 49 -130 122c0 75 59 124 148 124c97 0 161 -72 161 -183zM124 683c0 -21 15 -35 37 -35s36 14 36 35s-14 35 -36 35
s-37 -14 -37 -35z" />
    <glyph glyph-name="fraction" unicode="&#x2044;" horiz-adv-x="201" 
d="M-52 0h-138l443 700h138z" />
    <glyph glyph-name="onehalf" unicode="&#xbd;" horiz-adv-x="768" 
d="M82 679v21h111v-363l-114 -1v201h-18h-61v102h53c19 0 29 19 29 40zM182 0h-138l443 700h138zM560 219h-115v6c0 88 67 145 150 145c91 0 155 -51 155 -128c0 -54 -31 -83 -64 -104l-56 -36h125v-102h-302v96l144 93c17 11 33 27 33 50c0 19 -14 31 -33 31
c-23 0 -37 -16 -37 -49v-2z" />
    <glyph glyph-name="uni2153" unicode="&#x2153;" horiz-adv-x="777" 
d="M82 679v21h111v-363l-114 -1v201h-18h-61v102h53c19 0 29 19 29 40zM182 0h-138l443 700h138zM571 242h-114c2 80 59 128 153 128c93 0 143 -44 143 -101c0 -43 -29 -69 -62 -79c46 -9 73 -39 73 -82c0 -71 -58 -114 -161 -114s-156 47 -158 135h117c2 -23 12 -40 39 -40
c21 0 39 12 39 31c0 17 -12 30 -40 30h-21v69h20c22 0 38 10 38 28c0 17 -12 28 -32 28c-22 0 -32 -14 -34 -33z" />
    <glyph glyph-name="onequarter" unicode="&#xbc;" horiz-adv-x="765" 
d="M82 679v21h111v-363l-114 -1v201h-18h-61v102h53c19 0 29 19 29 40zM182 0h-138l443 700h138zM420 172l134 192h145v-197h51v-94h-51v-73h-114v73h-165v99zM585 167v97l-63 -97h63z" />
    <glyph glyph-name="threequarters" unicode="&#xbe;" horiz-adv-x="873" 
d="M136 579h-114c2 80 59 128 153 128c93 0 143 -44 143 -101c0 -43 -29 -69 -62 -79c46 -9 73 -39 73 -82c0 -71 -58 -114 -161 -114s-156 47 -158 135h117c2 -23 12 -40 39 -40c21 0 39 12 39 31c0 17 -12 30 -40 30h-21v69h20c22 0 38 10 38 28c0 17 -12 28 -32 28
c-22 0 -32 -14 -34 -33zM290 0h-138l443 700h138zM528 172l134 192h145v-197h51v-94h-51v-73h-114v73h-165v99zM693 167v97l-63 -97h63z" />
    <glyph glyph-name="uni2155" unicode="&#x2155;" horiz-adv-x="755" 
d="M82 679v21h111v-363l-114 -1v201h-18h-61v102h53c19 0 29 19 29 40zM182 0h-138l443 700h138zM468 364h255v-97h-163l-3 -40c16 12 36 20 62 20c73 0 121 -48 121 -121c0 -79 -60 -132 -145 -132c-81 0 -136 49 -142 121h112c4 -12 15 -21 31 -21s29 12 29 32
c0 19 -13 32 -30 32c-14 0 -23 -8 -28 -18h-109z" />
    <glyph glyph-name="uni2156" unicode="&#x2156;" horiz-adv-x="854" 
d="M125 555h-115v6c0 88 67 145 150 145c91 0 155 -51 155 -128c0 -54 -31 -83 -64 -104l-56 -36h125v-102h-302v96l144 93c17 11 33 27 33 50c0 19 -14 31 -33 31c-23 0 -37 -16 -37 -49v-2zM281 0h-138l443 700h138zM567 364h255v-97h-163l-3 -40c16 12 36 20 62 20
c73 0 121 -48 121 -121c0 -79 -60 -132 -145 -132c-81 0 -136 49 -142 121h112c4 -12 15 -21 31 -21s29 12 29 32c0 19 -13 32 -30 32c-14 0 -23 -8 -28 -18h-109z" />
    <glyph glyph-name="uni2157" unicode="&#x2157;" horiz-adv-x="863" 
d="M136 579h-114c2 80 59 128 153 128c93 0 143 -44 143 -101c0 -43 -29 -69 -62 -79c46 -9 73 -39 73 -82c0 -71 -58 -114 -161 -114s-156 47 -158 135h117c2 -23 12 -40 39 -40c21 0 39 12 39 31c0 17 -12 30 -40 30h-21v69h20c22 0 38 10 38 28c0 17 -12 28 -32 28
c-22 0 -32 -14 -34 -33zM290 0h-138l443 700h138zM576 364h255v-97h-163l-3 -40c16 12 36 20 62 20c73 0 121 -48 121 -121c0 -79 -60 -132 -145 -132c-81 0 -136 49 -142 121h112c4 -12 15 -21 31 -21s29 12 29 32c0 19 -13 32 -30 32c-14 0 -23 -8 -28 -18h-109z" />
    <glyph glyph-name="uni2158" unicode="&#x2158;" horiz-adv-x="881" 
d="M15 508l134 192h145v-197h51v-94h-51v-73h-114v73h-165v99zM308 0h-138l443 700h138zM180 503v97l-63 -97h63zM594 364h255v-97h-163l-3 -40c16 12 36 20 62 20c73 0 121 -48 121 -121c0 -79 -60 -132 -145 -132c-81 0 -136 49 -142 121h112c4 -12 15 -21 31 -21
s29 12 29 32c0 19 -13 32 -30 32c-14 0 -23 -8 -28 -18h-109z" />
    <glyph glyph-name="uni2159" unicode="&#x2159;" horiz-adv-x="770" 
d="M82 679v21h111v-363l-114 -1v201h-18h-61v102h53c19 0 29 19 29 40zM182 0h-138l443 700h138zM448 177c0 117 67 193 165 193c71 0 130 -43 141 -115h-110c-3 16 -18 29 -40 29c-34 0 -52 -38 -52 -71v-10c15 23 37 37 75 37c78 0 130 -49 130 -122
c0 -75 -59 -124 -148 -124c-97 0 -161 72 -161 183zM646 118c0 21 -15 35 -37 35s-36 -14 -36 -35s14 -35 36 -35s37 14 37 35z" />
    <glyph glyph-name="oneeighth" unicode="&#x215b;" horiz-adv-x="781" 
d="M82 679v21h111v-363l-114 -1v201h-18h-61v102h53c19 0 29 19 29 40zM182 0h-138l443 700h138zM448 104c0 40 21 72 73 88c-40 19 -60 40 -60 82c0 55 53 96 148 96s147 -41 147 -96c0 -44 -22 -64 -60 -82c52 -16 72 -47 72 -88c0 -64 -57 -110 -159 -110
s-161 46 -161 110zM646 259c0 18 -15 30 -37 30s-38 -12 -38 -30s16 -31 38 -31s37 13 37 31zM650 115c0 20 -17 34 -41 34c-25 0 -42 -14 -42 -34s17 -34 42 -34c24 0 41 14 41 34z" />
    <glyph glyph-name="threeeighths" unicode="&#x215c;" horiz-adv-x="889" 
d="M136 579h-114c2 80 59 128 153 128c93 0 143 -44 143 -101c0 -43 -29 -69 -62 -79c46 -9 73 -39 73 -82c0 -71 -58 -114 -161 -114s-156 47 -158 135h117c2 -23 12 -40 39 -40c21 0 39 12 39 31c0 17 -12 30 -40 30h-21v69h20c22 0 38 10 38 28c0 17 -12 28 -32 28
c-22 0 -32 -14 -34 -33zM290 0h-138l443 700h138zM556 104c0 40 21 72 73 88c-40 19 -60 40 -60 82c0 55 53 96 148 96s147 -41 147 -96c0 -44 -22 -64 -60 -82c52 -16 72 -47 72 -88c0 -64 -57 -110 -159 -110s-161 46 -161 110zM754 259c0 18 -15 30 -37 30
s-38 -12 -38 -30s16 -31 38 -31s37 13 37 31zM758 115c0 20 -17 34 -41 34c-25 0 -42 -14 -42 -34s17 -34 42 -34c24 0 41 14 41 34z" />
    <glyph glyph-name="fiveeighths" unicode="&#x215d;" horiz-adv-x="867" 
d="M33 700h255v-97h-163l-3 -40c16 12 36 20 62 20c73 0 121 -48 121 -121c0 -79 -60 -132 -145 -132c-81 0 -136 49 -142 121h112c4 -12 15 -21 31 -21s29 12 29 32c0 19 -13 32 -30 32c-14 0 -23 -8 -28 -18h-109zM268 0h-138l443 700h138zM534 104c0 40 21 72 73 88
c-40 19 -60 40 -60 82c0 55 53 96 148 96s147 -41 147 -96c0 -44 -22 -64 -60 -82c52 -16 72 -47 72 -88c0 -64 -57 -110 -159 -110s-161 46 -161 110zM732 259c0 18 -15 30 -37 30s-38 -12 -38 -30s16 -31 38 -31s37 13 37 31zM736 115c0 20 -17 34 -41 34
c-25 0 -42 -14 -42 -34s17 -34 42 -34c24 0 41 14 41 34z" />
    <glyph glyph-name="seveneighths" unicode="&#x215e;" horiz-adv-x="812" 
d="M213 0h-138l443 700h138zM0 601v98h279v-91l-126 -273h-127l126 266h-152zM479 104c0 40 21 72 73 88c-40 19 -60 40 -60 82c0 55 53 96 148 96s147 -41 147 -96c0 -44 -22 -64 -60 -82c52 -16 72 -47 72 -88c0 -64 -57 -110 -159 -110s-161 46 -161 110zM677 259
c0 18 -15 30 -37 30s-38 -12 -38 -30s16 -31 38 -31s37 13 37 31zM681 115c0 20 -17 34 -41 34c-25 0 -42 -14 -42 -34s17 -34 42 -34c24 0 41 14 41 34z" />
    <glyph glyph-name="period" unicode="." horiz-adv-x="270" 
d="M35 92c0 56 43 98 100 98s100 -42 100 -98s-43 -98 -100 -98s-100 42 -100 98z" />
    <glyph glyph-name="comma" unicode="," horiz-adv-x="270" 
d="M126 187c70 0 118 -58 118 -147c0 -127 -84 -190 -211 -190v87c63 0 100 24 100 61c0 4 0 10 -1 15c-11 -4 -19 -6 -31 -6c-40 0 -75 29 -75 87c0 51 46 93 100 93z" />
    <glyph glyph-name="colon" unicode=":" horiz-adv-x="270" 
d="M35 425c0 56 43 98 100 98s100 -42 100 -98s-43 -98 -100 -98s-100 42 -100 98zM35 92c0 56 43 98 100 98s100 -42 100 -98s-43 -98 -100 -98s-100 42 -100 98z" />
    <glyph glyph-name="semicolon" unicode=";" horiz-adv-x="270" 
d="M29 424c0 56 43 98 100 98s100 -42 100 -98s-43 -98 -100 -98s-100 42 -100 98zM126 187c70 0 118 -58 118 -147c0 -127 -84 -190 -211 -190v87c63 0 100 24 100 61c0 4 0 10 -1 15c-11 -4 -19 -6 -31 -6c-40 0 -75 29 -75 87c0 51 46 93 100 93z" />
    <glyph glyph-name="colon.case" horiz-adv-x="270" 
d="M35 445c0 56 43 98 100 98s100 -42 100 -98s-43 -98 -100 -98s-100 42 -100 98zM35 112c0 56 43 98 100 98s100 -42 100 -98s-43 -98 -100 -98s-100 42 -100 98z" />
    <glyph glyph-name="semicolon.case" horiz-adv-x="270" 
d="M29 444c0 56 43 98 100 98s100 -42 100 -98s-43 -98 -100 -98s-100 42 -100 98zM126 207c70 0 118 -58 118 -147c0 -127 -84 -190 -211 -190v87c63 0 100 24 100 61c0 4 0 10 -1 15c-11 -4 -19 -6 -31 -6c-40 0 -75 29 -75 87c0 51 46 93 100 93z" />
    <glyph glyph-name="ellipsis" unicode="&#x2026;" horiz-adv-x="790" 
d="M35 92c0 56 43 98 100 98s100 -42 100 -98s-43 -98 -100 -98s-100 42 -100 98zM295 92c0 56 43 98 100 98s100 -42 100 -98s-43 -98 -100 -98s-100 42 -100 98zM555 92c0 56 43 98 100 98s100 -42 100 -98s-43 -98 -100 -98s-100 42 -100 98z" />
    <glyph glyph-name="exclam" unicode="!" horiz-adv-x="310" 
d="M221 222h-130l-29 478h186zM55 92c0 56 43 98 100 98s100 -42 100 -98s-43 -98 -100 -98s-100 42 -100 98z" />
    <glyph glyph-name="exclamdown" unicode="&#xa1;" horiz-adv-x="310" 
d="M155 706c57 0 100 -42 100 -98s-43 -98 -100 -98s-100 42 -100 98s43 98 100 98zM62 0l29 478h130l27 -478h-186z" />
    <glyph glyph-name="question" unicode="?" horiz-adv-x="545" 
d="M191 455h-176c0 135 92 251 260 251c157 0 250 -81 250 -195c0 -100 -50 -139 -107 -177c-56 -38 -77 -60 -77 -97v-6h-162v24c0 85 40 118 106 155c46 26 64 53 64 85c0 40 -28 66 -73 66c-52 0 -85 -42 -85 -106zM169 88c0 54 42 94 97 94s97 -40 97 -94
s-42 -94 -97 -94s-97 40 -97 94z" />
    <glyph glyph-name="questiondown" unicode="&#xbf;" horiz-adv-x="540" 
d="M376 612c0 -54 -42 -94 -97 -94s-97 40 -97 94s42 94 97 94s97 -40 97 -94zM354 245h176c0 -135 -92 -251 -260 -251c-157 0 -250 81 -250 195c0 100 50 139 107 177c56 38 77 60 77 97v6h162v-24c0 -85 -40 -118 -106 -155c-46 -26 -64 -53 -64 -85c0 -40 28 -66 73 -66
c52 0 85 42 85 106z" />
    <glyph glyph-name="periodcentered" unicode="&#xb7;" horiz-adv-x="270" 
d="M35 284c0 56 43 98 100 98s100 -42 100 -98s-43 -98 -100 -98s-100 42 -100 98z" />
    <glyph glyph-name="periodcentered.case" horiz-adv-x="310" 
d="M55 350c0 56 43 98 100 98s100 -42 100 -98s-43 -98 -100 -98s-100 42 -100 98z" />
    <glyph glyph-name="bullet" unicode="&#x2022;" horiz-adv-x="470" 
d="M55 331c0 101 77 176 180 176s180 -75 180 -176c0 -102 -77 -177 -180 -177s-180 75 -180 177z" />
    <glyph glyph-name="asterisk" unicode="*" horiz-adv-x="439" 
d="M365 643l49 -106l-112 -39l77 -81l-90 -75l-70 105l-70 -104l-90 76l77 80l-111 40l48 105l93 -51l-5 107h116l-5 -108z" />
    <glyph glyph-name="uni2051" unicode="&#x2051;" horiz-adv-x="499" 
d="M395 683l49 -106l-112 -39l77 -81l-90 -75l-70 105l-70 -104l-90 76l77 80l-111 40l48 105l93 -51l-5 107h116l-5 -108zM395 249l49 -106l-112 -39l77 -81l-90 -75l-70 105l-70 -104l-90 76l77 80l-111 40l48 105l93 -51l-5 107h116l-5 -108z" />
    <glyph glyph-name="uni2042" unicode="&#x2042;" horiz-adv-x="999" 
d="M645 683l49 -106l-112 -39l77 -81l-90 -75l-70 105l-70 -104l-90 76l77 80l-111 40l48 105l93 -51l-5 107h116l-5 -108zM395 253l49 -106l-112 -39l77 -81l-90 -75l-70 105l-70 -104l-90 76l77 80l-111 40l48 105l93 -51l-5 107h116l-5 -108zM895 253l49 -106l-112 -39
l77 -81l-90 -75l-70 105l-70 -104l-90 76l77 80l-111 40l48 105l93 -51l-5 107h116l-5 -108z" />
    <glyph glyph-name="numbersign" unicode="#" horiz-adv-x="553" 
d="M121 479l19 127h141l-19 -127h79l19 127h141l-19 -127h55v-142h-76l-9 -68h64v-142h-85l-19 -127h-141l19 127h-79l-19 -127h-141l19 127h-55v142h76l9 68h-64v142h85zM321 337h-80l-10 -68h80z" />
    <glyph glyph-name="bar" unicode="|" horiz-adv-x="283" 
d="M55 -130v860h173v-860h-173z" />
    <glyph glyph-name="brokenbar" unicode="&#xa6;" horiz-adv-x="283" 
d="M55 372v358h173v-358h-173zM55 -130v352h173v-352h-173z" />
    <glyph glyph-name="slash" unicode="/" horiz-adv-x="398" 
d="M158 -130h-162l283 860h163z" />
    <glyph glyph-name="backslash" unicode="\" horiz-adv-x="462" 
d="M183 730l283 -860h-162l-284 860h163z" />
    <glyph glyph-name="parenleft" unicode="(" horiz-adv-x="368" 
d="M368 -130h-182c-99 137 -146 267 -146 430c0 159 46 291 146 430h182c-115 -159 -158 -268 -158 -430c0 -164 42 -274 158 -430z" />
    <glyph glyph-name="parenright" unicode=")" horiz-adv-x="368" 
d="M0 730h182c99 -137 146 -267 146 -430c0 -159 -46 -291 -146 -430h-182c115 159 158 268 158 430c0 164 -42 274 -158 430z" />
    <glyph glyph-name="braceleft" unicode="{" horiz-adv-x="353" 
d="M343 580l-38 -1c-37 -1 -57 -21 -57 -53c0 -6 1 -14 3 -22l19 -68c2 -9 4 -20 4 -29c0 -48 -36 -88 -99 -106c63 -11 100 -49 100 -101c0 -11 -1 -23 -5 -36l-19 -68c-2 -9 -3 -17 -3 -23c0 -32 20 -51 57 -52l38 -1v-150h-30c-144 0 -230 62 -230 161c0 12 1 24 4 38
l17 77c2 8 2 16 2 23c0 40 -32 56 -86 56v150c56 0 87 18 87 56c0 7 -1 15 -3 23l-17 77c-3 14 -4 26 -4 39c0 98 87 160 230 160h30v-150z" />
    <glyph glyph-name="braceright" unicode="}" horiz-adv-x="353" 
d="M333 375v-150c-54 0 -86 -16 -86 -56c0 -7 0 -15 2 -23l17 -77c3 -14 4 -26 4 -38c0 -99 -86 -161 -230 -161h-30v150l38 1c37 1 57 20 57 52c0 6 -1 14 -3 23l-19 68c-4 13 -5 25 -5 36c0 52 37 90 100 101c-63 18 -99 58 -99 106c0 9 2 20 4 29l19 68c2 8 3 16 3 22
c0 32 -20 52 -57 53l-38 1v150h30c143 0 230 -62 230 -160c0 -13 -1 -25 -4 -39l-17 -77c-2 -8 -3 -16 -3 -23c0 -38 31 -56 87 -56z" />
    <glyph glyph-name="bracketleft" unicode="[" horiz-adv-x="347" 
d="M45 -130v860h292v-150h-131v-560h131v-150h-292z" />
    <glyph glyph-name="bracketright" unicode="]" horiz-adv-x="347" 
d="M302 730v-860h-292v150h131v560h-131v150h292z" />
    <glyph glyph-name="hyphen" unicode="-" horiz-adv-x="426" 
d="M393 214h-360v140h360v-140z" />
    <glyph glyph-name="endash" unicode="&#x2013;" horiz-adv-x="620" 
d="M580 214h-540v140h540v-140z" />
    <glyph glyph-name="emdash" unicode="&#x2014;" horiz-adv-x="927" 
d="M33 214v140h861v-140h-861z" />
    <glyph glyph-name="bar.case" horiz-adv-x="293" 
d="M55 0v700h183v-700h-183z" />
    <glyph glyph-name="brokenbar.case" horiz-adv-x="293" 
d="M55 383v317h183v-317h-183zM55 0v313h183v-313h-183z" />
    <glyph glyph-name="slash.case" horiz-adv-x="379" 
d="M-10 0l226 700h173l-226 -700h-173z" />
    <glyph glyph-name="backslash.case" horiz-adv-x="379" 
d="M-10 700h173l226 -700h-173z" />
    <glyph glyph-name="parenleft.case" horiz-adv-x="321" 
d="M38 350c0 139 44 266 91 350h177c-66 -103 -97 -228 -97 -350s31 -248 97 -350h-177c-47 83 -91 211 -91 350z" />
    <glyph glyph-name="parenright.case" horiz-adv-x="321" 
d="M192 0h-177c66 102 97 228 97 350s-31 247 -97 350h177c47 -84 91 -211 91 -350s-44 -267 -91 -350z" />
    <glyph glyph-name="braceleft.case" horiz-adv-x="394" 
d="M379 550l-41 -1c-51 -2 -68 -23 -68 -58c0 -9 1 -19 3 -30s3 -22 3 -32c0 -43 -37 -68 -75 -79c41 -10 76 -37 76 -79c0 -10 -2 -20 -4 -32c-2 -11 -3 -21 -3 -30c0 -35 17 -56 68 -58l41 -1v-150h-61c-112 0 -203 22 -203 148c0 7 1 16 2 24c2 17 2 28 2 41
c0 51 -26 64 -99 64v146c72 0 99 13 99 65c0 11 -1 22 -2 36c-1 9 -2 20 -2 28c0 126 91 148 203 148h61v-150z" />
    <glyph glyph-name="braceright.case" horiz-adv-x="394" 
d="M275 488c0 -52 27 -65 99 -65v-146c-73 0 -99 -13 -99 -64c0 -13 0 -24 2 -41c1 -8 2 -17 2 -24c0 -126 -91 -148 -203 -148h-61v150l41 1c51 2 68 23 68 58c0 9 -1 19 -3 30c-2 12 -4 22 -4 32c0 42 35 69 76 79c-38 11 -75 36 -75 79c0 10 1 21 3 32s3 21 3 30
c0 35 -17 56 -68 58l-41 1v150h61c112 0 203 -22 203 -148c0 -8 -1 -19 -2 -28c-1 -14 -2 -25 -2 -36z" />
    <glyph glyph-name="bracketleft.case" horiz-adv-x="332" 
d="M45 0v700h272v-151h-111v-398h111v-151h-272z" />
    <glyph glyph-name="bracketright.case" horiz-adv-x="332" 
d="M15 700h272v-700h-272v151h111v398h-111v151z" />
    <glyph glyph-name="hyphen.case" horiz-adv-x="436" 
d="M398 275h-360v155h360v-155z" />
    <glyph glyph-name="endash.case" horiz-adv-x="616" 
d="M578 275h-540v155h540v-155z" />
    <glyph glyph-name="emdash.case" horiz-adv-x="937" 
d="M38 274v155h861v-155h-861z" />
    <glyph glyph-name="underscore" unicode="_" horiz-adv-x="504" 
d="M459 -162h-414v156h414v-156z" />
    <glyph glyph-name="quotesinglbase" unicode="&#x201a;" horiz-adv-x="270" 
d="M126 187c70 0 118 -58 118 -147c0 -127 -84 -190 -211 -190v87c63 0 100 24 100 61c0 4 0 10 -1 15c-11 -4 -19 -6 -31 -6c-40 0 -75 29 -75 87c0 51 46 93 100 93z" />
    <glyph glyph-name="quotedblbase" unicode="&#x201e;" 
d="M126 187c70 0 118 -58 118 -147c0 -127 -84 -190 -211 -190v87c63 0 100 24 100 61c0 4 0 10 -1 15c-11 -4 -19 -6 -31 -6c-40 0 -75 29 -75 87c0 51 46 93 100 93zM366 187c70 0 118 -58 118 -147c0 -127 -84 -190 -211 -190v87c63 0 100 24 100 61c0 4 0 10 -1 15
c-11 -4 -19 -6 -31 -6c-40 0 -75 29 -75 87c0 51 46 93 100 93z" />
    <glyph glyph-name="quotedblleft" unicode="&#x201c;" 
d="M144 369c-70 0 -118 58 -118 147c0 127 84 190 211 190v-87c-63 0 -100 -24 -100 -61c0 -4 0 -10 1 -15c11 4 19 6 31 6c40 0 75 -29 75 -87c0 -51 -46 -93 -100 -93zM384 369c-70 0 -118 58 -118 147c0 127 84 190 211 190v-87c-63 0 -100 -24 -100 -61
c0 -4 0 -10 1 -15c11 4 19 6 31 6c40 0 75 -29 75 -87c0 -51 -46 -93 -100 -93z" />
    <glyph glyph-name="quotedblright" unicode="&#x201d;" 
d="M126 706c70 0 118 -58 118 -147c0 -127 -84 -190 -211 -190v87c63 0 100 24 100 61c0 4 0 10 -1 15c-11 -4 -19 -6 -31 -6c-40 0 -75 29 -75 87c0 51 46 93 100 93zM366 706c70 0 118 -58 118 -147c0 -127 -84 -190 -211 -190v87c63 0 100 24 100 61c0 4 0 10 -1 15
c-11 -4 -19 -6 -31 -6c-40 0 -75 29 -75 87c0 51 46 93 100 93z" />
    <glyph glyph-name="quoteleft" unicode="&#x2018;" horiz-adv-x="270" 
d="M144 369c-70 0 -118 58 -118 147c0 127 84 190 211 190v-87c-63 0 -100 -24 -100 -61c0 -4 0 -10 1 -15c11 4 19 6 31 6c40 0 75 -29 75 -87c0 -51 -46 -93 -100 -93z" />
    <glyph glyph-name="quoteright" unicode="&#x2019;" horiz-adv-x="270" 
d="M126 706c70 0 118 -58 118 -147c0 -127 -84 -190 -211 -190v87c63 0 100 24 100 61c0 4 0 10 -1 15c-11 -4 -19 -6 -31 -6c-40 0 -75 29 -75 87c0 51 46 93 100 93z" />
    <glyph glyph-name="guillemotleft" unicode="&#xab;" horiz-adv-x="610" 
d="M160 516h173l-146 -258l146 -258h-173l-148 258zM420 515h173l-146 -258l146 -258h-173l-148 258z" />
    <glyph glyph-name="guillemotright" unicode="&#xbb;" horiz-adv-x="610" 
d="M423 258l-146 258h173l148 -258l-148 -258h-173zM163 257l-146 258h173l148 -258l-148 -258h-173z" />
    <glyph glyph-name="guilsinglleft" unicode="&#x2039;" horiz-adv-x="350" 
d="M160 516h173l-146 -258l146 -258h-173l-148 258z" />
    <glyph glyph-name="guilsinglright" unicode="&#x203a;" horiz-adv-x="350" 
d="M163 258l-146 258h173l148 -258l-148 -258h-173z" />
    <glyph glyph-name="guillemotleft.case" horiz-adv-x="620" 
d="M165 605h173l-146 -258l146 -258h-173l-148 258zM425 604h173l-146 -258l146 -258h-173l-148 258z" />
    <glyph glyph-name="guillemotright.case" horiz-adv-x="620" 
d="M428 347l-146 258h173l148 -258l-148 -258h-173zM168 346l-146 258h173l148 -258l-148 -258h-173z" />
    <glyph glyph-name="guilsinglleft.case" horiz-adv-x="350" 
d="M160 604h173l-146 -258l146 -258h-173l-148 258z" />
    <glyph glyph-name="guilsinglright.case" horiz-adv-x="350" 
d="M163 346l-146 258h173l148 -258l-148 -258h-173z" />
    <glyph glyph-name="quotedbl" unicode="&#x22;" horiz-adv-x="438" 
d="M167 414h-104l-36 191c-10 54 20 101 88 101s98 -47 88 -101zM375 414h-104l-36 191c-10 54 20 101 88 101s98 -47 88 -101z" />
    <glyph glyph-name="quotesingle" unicode="'" horiz-adv-x="230" 
d="M167 414h-104l-36 191c-10 54 20 101 88 101s98 -47 88 -101z" />
    <glyph glyph-name="at" unicode="@" horiz-adv-x="980" 
d="M40 240c0 260 210 440 469 440c256 0 431 -150 431 -366c0 -165 -111 -268 -258 -268c-61 0 -101 35 -112 81l-3 12c-27 -56 -84 -92 -148 -92c-80 0 -161 65 -161 192c0 131 80 230 198 230c63 0 101 -31 106 -57l19 51h140l-33 -275c-4 -36 5 -48 30 -48
c50 0 104 75 104 180c0 164 -118 268 -317 268c-191 0 -347 -150 -347 -346c0 -199 126 -301 347 -301c79 0 151 17 214 45l-5 -102c-46 -24 -125 -42 -224 -42c-258 0 -450 149 -450 398zM553 275c0 51 -26 72 -60 72c-42 0 -75 -43 -75 -96c0 -57 31 -80 59 -80
c38 0 76 37 76 104z" />
    <glyph glyph-name="ampersand" unicode="&#x26;" horiz-adv-x="837" 
d="M632 168l12 -12c15 -15 26 -16 44 -16h74v-140h-102c-56 0 -107 12 -150 54c-57 -41 -111 -60 -182 -60c-150 0 -268 62 -266 195c1 61 30 134 140 187c-43 55 -48 87 -48 143c0 107 94 187 231 187c117 0 212 -71 212 -171c0 -64 -27 -121 -152 -175c2 -3 4 -5 7 -8
l91 -93l76 119h154zM381 591c-35 0 -61 -29 -61 -67c0 -34 13 -54 40 -83c58 27 78 55 78 90c0 36 -24 60 -57 60zM240 207c0 -56 38 -84 100 -84c32 0 58 7 83 20l-146 151c-29 -25 -37 -55 -37 -87z" />
    <glyph glyph-name="paragraph" unicode="&#xb6;" horiz-adv-x="788" 
d="M509 0h-164v216h-60c-159 0 -265 95 -265 242s106 242 265 242h224v-700zM569 0v700h164v-700h-164z" />
    <glyph glyph-name="section" unicode="&#xa7;" horiz-adv-x="655" 
d="M599 310c0 -59 -39 -100 -107 -126c38 -25 61 -60 61 -114c0 -107 -89 -176 -227 -176c-134 0 -225 65 -231 169h166c3 -30 26 -52 65 -52c35 0 59 16 58 45c-1 31 -23 44 -77 60c-133 39 -251 68 -251 174c0 61 37 103 101 130c-35 24 -56 58 -56 110
c0 107 89 176 227 176c134 0 225 -65 231 -169h-166c-3 30 -26 52 -65 52c-35 0 -59 -16 -58 -45c1 -31 23 -44 77 -60c134 -39 252 -68 252 -174zM331 243c14 -4 28 -7 41 -11c30 13 47 31 47 61c0 29 -20 44 -96 64c-13 3 -26 7 -38 10c-31 -12 -50 -30 -50 -60
c0 -29 20 -44 96 -64z" />
    <glyph glyph-name="copyright" unicode="&#xa9;" horiz-adv-x="788" 
d="M24 350c0 204 157 356 369 356s370 -152 370 -356s-158 -356 -370 -356s-369 152 -369 356zM678 350c0 165 -121 286 -285 286s-284 -121 -284 -286s120 -286 284 -286s285 121 285 286zM479 299h100c-11 -101 -84 -154 -185 -154c-125 0 -197 96 -197 205
c0 110 72 206 197 206c91 0 173 -49 184 -154h-100c-10 37 -42 64 -82 64c-64 0 -94 -52 -94 -116c0 -63 31 -114 94 -114c42 0 72 23 83 63z" />
    <glyph glyph-name="registered" unicode="&#xae;" horiz-adv-x="531" 
d="M35 484c0 124 106 222 230 222c125 0 231 -97 231 -221s-106 -221 -231 -221c-124 0 -230 97 -230 220zM433 484c0 93 -74 167 -168 167c-93 0 -166 -74 -166 -168c0 -92 73 -166 166 -166c94 0 168 74 168 167zM177 371v228h96c55 0 92 -31 92 -79
c0 -28 -14 -51 -37 -66l41 -83h-70l-34 68h-24v-68h-64zM268 548h-26v-56h26c20 0 31 11 31 28c0 18 -11 28 -31 28z" />
    <glyph glyph-name="trademark" unicode="&#x2122;" horiz-adv-x="687" 
d="M20 626v74h240v-74h-80v-194h-79v194h-81zM290 432v268h112l66 -164l62 164h109v-268h-79v158l-67 -158h-57l-67 158v-158h-79z" />
    </font>
</defs>
</svg>
